Warning! Use a VPN When Downloading Torrents!
Your IP Address is .   Location is
Your Internet Provider is tracking your torrent activity!  Hide your IP ADDRESS with a VPN!
We strongly recommend using Trust.Zone VPN to anonymize your torrenting. It's FREE!
Get VPN Now for FREE!
First Cams

Xvid/x264



Non-English

Site Friends
      ETTV

      WorldWide Torrents

      Free Tutorials

      Aiosearch


Loading...

Bumblebee (2018) 2160p HDR 5.1 x265 10bit Phun Psyz


Download torrent:      
Info Hash:  281d78fdf873bf9f097aa68e0e582744aac6469f
Category:  Movies  > 4K
Torrent language:  English  
Seeds | Leech:  478 | 313
Complete:   956
Health:   
Total Size:  3.56 GB
Added By:        phunpsyz
Date Added:  25-03-2019 02:39:am | Last Edit:  25-03-2019 02:56:pm

IMDB
Bumblebee
Bumblebee Released 21 Dec 2018

Genre Action, Adventure, Sci-Fi

Director Travis Knight

Writer Christina Hodson, Christina Hodson (story by)

Actors Hailee Steinfeld, Jorge Lendeborg Jr., John Cena, Jason Drucker

Plot On the run in the year 1987, Bumblebee finds refuge in a junkyard in a small California beach town. On the cusp of turning 18 and trying to find her place in the world, Charlie Watson discovers Bumblebee, battle-scarred and broken.

Link http://www.imdb.com/title/tt4701182

Last Updated 17-06-2019 09:51:53
6.9

Votes 93,623

Un système d'onglets en javascript
Description Trackers Files Comments Download
www.imdb.com/title/tt4701182/

On the run in the year of 1987, Bumblebee finds refuge in a junkyard in a small Californian beach town. Charlie, on the cusp of turning 18 and trying to find her place in the world, discovers Bumblebee, battle-scarred and broken.

Source: FGT 4K HDR Remux







Format                      : Matroska
Format version              : Version 4
File size                   : 3.56 GiB
Duration                    : 1 h 53 min
Overall bit rate            : 4 475 kb/s
Writing application         : HandBrake 1.2.0 2018121700

Video
ID                          : 1
Format                      : HEVC
Format/Info                 : High Efficiency Video Coding
Format profile              : Main [email protected]@High
Codec ID                    : V_MPEGH/ISO/HEVC
Duration                    : 1 h 53 min
Bit rate                    : 4 066 kb/s
Width                       : 3 840 pixels
Height                      : 2 160 pixels
Display aspect ratio        : 16:9
Frame rate mode             : Constant
Frame rate                  : 23.976 (24000/1001) FPS
Color space                 : YUV
Chroma subsampling          : 4:2:0
Bit depth                   : 10 bits
Bits/(Pixel*Frame)          : 0.020
Stream size                 : 3.23 GiB (91%)
Writing library             : x265 2.9:[Windows][GCC 7.1.0][64 bit] 10bit
Color primaries             : BT.2020
Transfer characteristics    : PQ
Matrix coefficients         : BT.2020 non-constant

Audio
ID                          : 2
Format                      : AC-3
Format/Info                 : Audio Coding 3
Commercial name             : Dolby Digital
Codec ID                    : A_AC3
Duration                    : 1 h 53 min
Bit rate mode               : Constant
Bit rate                    : 320 kb/s
Channel(s)                  : 6 channels
Channel layout              : L R C LFE Ls Rs
Sampling rate               : 48.0 kHz
Frame rate                  : 31.250 FPS (1536 SPF)
Bit depth                   : 16 bits
Compression mode            : Lossy
Stream size                 : 261 MiB (7%)
Title                       : Surround
Language                    : English

Text
Language                    : English
Language                    : English
Language                    : English
Language                    : Arabic
Language                    : Chinese
Language                    : Czech
Language                    : Danish
Language                    : Greek
Language                    : Spanish
Language                    : Spanish
Language                    : French
Language                    : French
Language                    : Hindi
Language                    : Icelandic
Language                    : Italian
Language                    : Korean
Language                    : Hungarian
Language                    : Chinese
Language                    : Dutch
Language                    : Norwegian
Language                    : Polish
Language                    : Portuguese
Language                    : Portuguese
Language                    : Russian
Language                    : Romanian
Language                    : Slovak
Language                    : Finnish
Language                    : Swedish
Language                    : Thai
Language                    : Turkish
Default                     : No
Forced                      : No


Similar Torrents
Type Name Size Added S L
Divx/Xvid Bumblebee.2018.HC.HDRip.XviD.AC3-EVO
1.37 GB 2019-01-18 19:03:50 35692 16065
Divx/Xvid Bumblebee.2018.HDRip.XviD.AC3-EVO
1.24 GB 2019-03-19 07:36:08 7182 4637
Divx/Xvid Bumblebee (2018) [MD] [HDRip] [XviD-KRT] [Dubbing ...
699.96 MB 2019-01-25 22:26:32 6712 2240
Cam/TS Bumblebee.2018.CAM.X264-MrTaco
1.29 GB 2018-12-16 14:21:50 5601 2243
Cam/TS Bumblebee 2018 NEW HDTS x264 AC3-ETRG
927.48 MB 2018-12-28 15:12:07 3478 2585
Divx/Xvid Bumblebee.2018.HC.HDRip.XViD.AC3-ETRG
1.35 GB 2019-01-19 13:08:23 3357 3218
Cam/TS Bumblebee 2018 NEW 720p HD-TS X264.LLG
1.31 GB 2019-01-02 08:03:03 3311 1768
Cam/TS Bumblebee 2018 NEW 720p HD-TS X264 SugarTits
2.04 GB 2018-12-28 12:20:21 3066 1135
Cam/TS Bumblebee 2018 720p HDCAM ENG SUB-ORCA88
2.44 GB 2018-12-14 10:49:47 2770 3340
Cam/TS Bumblebee 2018 NEW HD-TS XViD AC3-ETRG
1.27 GB 2018-12-29 10:33:51 2718 1596

Loading...


Trackers:
udp://tracker.opentrackr.org:1337/announce

This Torrent also has backup trackers
URLSeedersLeechersCompleted
http://explodie.org:6969/announce000
http://open.acgtracker.com:1096/announce000

Bumblebee (2018) 2160p HDR 5.1 x265 10bit Phun Psyz
Files
Bumblebee (2018) 2160p HDR 5.1 x265 10bit Phun Psyz.mkv (3.56 GB)


Comments:
No comments still posted
Loading...
Powered by TT | Page Generated In 0.167540 secs.
| RSS Feed | Feed Info