[Login] or [Signup]


Warning! Use a VPN When Downloading Torrents!
Your IP Address is .   Location is
Your Internet Provider is tracking your torrent activity!  Hide your IP ADDRESS with a VPN!
We strongly recommend using ExpressVPN to anonymize your torrenting. 30 Day Money Back Guarantee!
Try it Now!
First Cams

Xvid/x264



Non-English

Site Friends
      ETTV

      WorldWide Torrents

      Free Tutorials

      Aiosearch


Loading...

Bumblebee (2018).XviD.italian.english.Ac3-5.1.Ita Eng-MIRCrew


Download torrent:    
Info Hash:  4852e5f4071e2390e6ed243735e10d1932c51971
Category:  Movies  > Divx/Xvid
Torrent language:  English  
Seeds | Leech:  607 | 408
Complete:   2,243
Health:   
Total Size:  1.80 GB
Added By:        robbyrs
Date Added:  24-03-2019 10:04:pm | Last Edit:  25-03-2019 01:42:pm

IMDB
Bumblebee
Bumblebee Released 21 Dec 2018

Genre Action, Adventure, Sci-Fi

Director Travis Knight

Writer Christina Hodson, Christina Hodson (story by)

Actors Hailee Steinfeld, Jorge Lendeborg Jr., John Cena, Jason Drucker

Plot On the run in the year of 1987, Bumblebee finds refuge in a junkyard in a small Californian beach town. Charlie, on the cusp of turning 18 and trying to find her place in the world, discovers Bumblebee, battle-scarred and broken.

Link http://www.imdb.com/title/tt4701182

Last Updated 23-04-2019 21:22:15
7.0

Votes 70,389

Un système d'onglets en javascript
Description Trackers Files Comments Download
Bumblebee (2018).XviD.italian.english.Ac3-5.1.Ita Eng-MIRCrew


NO FOUND ONLY ORIGINAL RELEASE

My release is always in double track audio italian and Original audio
for select it use VLC or dvd player home
not use wmp

Bumblebee (2018)









Titolo originale Bumblebee
Lingua originale inglese
Paese di produzione Stati Uniti d'America
Anno 2018
Durata 114 min[1]
Rapporto 1.85 : 1
Genere fantascienza, azione, avventura
Regia Travis Knight
Sceneggiatura Christina Hodson



   Hailee Steinfeld: Charlie Watson
   John Cena: agente Jack Burns
   Jorge Lendeborg Jr.: Memo
   John Ortiz: dottor Powell
   Pamela Adlon: Sally Watson
   Jason Drucker: Otis Watson
   Rachel Crow: Celia
   Kenneth Choi: Ken
   Gracie Dzienny: Tina
   Ricardo Hoyos: Tripp
   Lenny Jacobson: Roy
   Megyn Price: Amber
   Stephen Schneider: Ron
   Len Cariou: zio Hank
   Glynn Turman: gen. Whalen



Su Cybertron infuria da secoli una guerra tra due fazioni avversarie: gli Autobot guidati da Optimus Prime e i Decepticon guidati da Shockwave.



On the run in the year of 1987, Bumblebee finds refuge in a junkyard in a small Californian beach town. Charlie, on the cusp of turning 18 and trying to find her place in the world, discovers Bumblebee, battle-scarred and broken








General
Complete name                            : Bumblebee (2018).XviD.ita.eng.sub.ita.eng-MIRCrew\Bumblebee (2018).XviD.ita.eng.sub.ita.eng-MIRCrew.avi
Format                                   : AVI
Format/Info                              : Audio Video Interleave
Format profile                           : OpenDML
File size                                : 1.80 GiB
Duration                                 : 1h 53mn
Overall bit rate                         : 2 258 Kbps
Movie name                               : MIRCrew
Writing application                      : Lavf54.63.100

Video
ID                                       : 0
Format                                   : MPEG-4 Visual
Format profile                           : [email protected]
Format settings, BVOP                    : No
Format settings, QPel                    : No
Format settings, GMC                     : No warppoints
Format settings, Matrix                  : Default (H.263)
Codec ID                                 : XVID
Codec ID/Hint                            : XviD
Duration                                 : 1h 53mn
Bit rate                                 : 1 473 Kbps
Width                                    : 720 pixels
Height                                   : 400 pixels
Display aspect ratio                     : 16:9
Frame rate                               : 23.976 fps
Color space                              : YUV
Chroma subsampling                       : 4:2:0
Bit depth                                : 8 bits
Scan type                                : Progressive
Compression mode                         : Lossy
Bits/(Pixel*Frame)                       : 0.213
Stream size                              : 1.17 GiB (65%)
Title                                    : MIRCrew
Writing library                          : XviD 64

Audio #1
ID                                       : 1
Format                                   : AC-3
Format/Info                              : Audio Coding 3
Codec ID                                 : 00001000-0000-0020-8000-00AA00389B71
Duration                                 : 1h 53mn
Bit rate                                 : 384 Kbps
Channel(s)                               : 6 channels
Channel positions                        : Front: L C R, Back: L R, LFE
Sampling rate                            : 48.0 KHz
Bit depth                                : 16 bits
Compression mode                         : Lossy
Stream size                              : 313 MiB (17%)
Interleave, duration                     : 32 ms (0.77 video frame)
Title                                    : ita ac3 5.1

Audio #2
ID                                       : 2
Format                                   : AC-3
Format/Info                              : Audio Coding 3
Codec ID                                 : 00001000-0000-0020-8000-00AA00389B71
Duration                                 : 1h 53mn
Bit rate                                 : 384 Kbps
Channel(s)                               : 6 channels
Channel positions                        : Front: L C R, Back: L R, LFE
Sampling rate                            : 48.0 KHz
Bit depth                                : 16 bits
Compression mode                         : Lossy
Stream size                              : 313 MiB (17%)
Interleave, duration                     : 32 ms (0.77 video frame)
Title                                    : eng ac3 5.1






Similar Torrents
Type Name Size Added S L
Divx/Xvid Bumblebee.2018.HC.HDRip.XviD.AC3-EVO
1.37 GB 2019-01-18 19:03:50 35692 16065
Divx/Xvid Bumblebee.2018.HDRip.XviD.AC3-EVO
1.24 GB 2019-03-19 07:36:08 7182 4637
Divx/Xvid Bumblebee (2018) [MD] [HDRip] [XviD-KRT] [Dubbing ...
699.96 MB 2019-01-25 22:26:32 6712 2240
Cam/TS Bumblebee.2018.CAM.X264-MrTaco
1.29 GB 2018-12-16 14:21:50 5601 2243
Cam/TS Bumblebee 2018 NEW HDTS x264 AC3-ETRG
927.48 MB 2018-12-28 15:12:07 3478 2585
Divx/Xvid Bumblebee.2018.HC.HDRip.XViD.AC3-ETRG
1.35 GB 2019-01-19 13:08:23 3357 3218
Cam/TS Bumblebee 2018 NEW 720p HD-TS X264.LLG
1.31 GB 2019-01-02 08:03:03 3311 1768
Cam/TS Bumblebee 2018 NEW 720p HD-TS X264 SugarTits
2.04 GB 2018-12-28 12:20:21 3066 1135
Cam/TS Bumblebee 2018 720p HDCAM ENG SUB-ORCA88
2.44 GB 2018-12-14 10:49:47 2770 3340
Cam/TS Bumblebee 2018 NEW HD-TS XViD AC3-ETRG
1.27 GB 2018-12-29 10:33:51 2718 1596

Loading...


Trackers:
udp://tracker.coppersurfer.tk:6969/announce

Bumblebee (2018).XviD.italian.english.Ac3-5.1.Ita Eng-MIRCrew
Files
Bumblebee (2018).XviD.ita.eng.sub.ita.eng-MIRCrew.avi (1.80 GB)
Bumblebee (2018).XviD.ita.eng.sub.ita.eng-MIRCrew.eng.srt (86.19 kB)
Bumblebee (2018).XviD.ita.eng.sub.ita.eng-MIRCrew.ita.srt (72.79 kB)
Bumblebee (2018).XviD.ita.eng.sub.ita.eng-MIRCrew.srt (3.32 kB)


Comments:
No comments still posted
Loading...
Powered by TT | Page Generated In 0.301077 secs.
| RSS Feed | Feed Info