[Login] or [Signup]


Warning! Use a VPN When Downloading Torrents!
Your IP Address is .   Location is
Your Internet Provider is tracking your torrent activity!  Hide your IP ADDRESS with a VPN!
We strongly recommend using ExpressVPN to anonymize your torrenting. 30 Day Money Back Guarantee!
Try it Now!
First Cams

Xvid/x264



Non-English

Site Friends
      ETTV

      WorldWide Torrents

      Free Tutorials

      Aiosearch


Loading...

Mile 22 - Red Zone - 22 miglia di fuoco (2018).XviD.italian.english.Ac3-5.1.sub.ita.NUita.eng-MIRCre...


Download torrent:    
Info Hash:  60200d9aee04aa7786b83024cf257fc04fea52bb
Category:  Movies  > Divx/Xvid
Torrent language:  English  
Seeds | Leech:  343 | 234
Complete:   1,725
Health:   
Total Size:  1.50 GB
Added By:        robbyrs
Date Added:  24-03-2019 07:16:pm | Last Edit:  25-03-2019 11:41:am

Un système d'onglets en javascript
Description Trackers Files Comments Download
Mile 22 - Red Zone - 22 miglia di fuoco (2018).XviD.italian.english.Ac3-5.1.sub.ita.NUita.eng-MIRCrew


NO FOUND ONLY ORIGINAL RELEASE

My release is always in double track audio italian and Original audio
for select it use VLC or dvd player home
not use wmp

Red Zone - 22 miglia di fuoco - Mile 22 (2018)











GENERE: Azione
ANNO: 2018
REGIA: Peter Berg
PAESE: USA
DURATA: 94 Min



Mark Wahlberg, Lauren Cohan, Ronda Rousey, John Malkovich, Iko Uwais, Terry Kinney, David Garelik, Sala Baker, Poorna Jagannathan, Nikolai Nikolaeff, Carlo Alban, Natasha Goubskaya, Chae-rin Lee, Sam Medina



Sono 22 le miglia che l'agente della CIA James Silva (Mark Wahlberg) deve percorrere per giungere in aeroporto. Siamo in Indonesia e Silva insieme alla sua squadra deve scortare e proteggere un informatore compromesso, Li Noor (la star delle arti marziali Iko Uwais), agente delle forze speciali in possesso di informazioni sensibili.



An elite American intelligence officer, aided by a top-secret tactical command unit, tries to smuggle a mysterious police officer with sensitive information out of Indonesia.

 








General
Complete name                            : Mile 22 (2018).XviD.ita.eng.sub.ita.eng.NUita-MIRCrew\Mile 22 (2018).XviD.ita.eng.sub.ita.eng.NUita-MIRCrew.avi
Format                                   : AVI
Format/Info                              : Audio Video Interleave
File size                                : 1.50 GiB
Duration                                 : 1h 34mn
Overall bit rate                         : 2 269 Kbps
Movie name                               : MIRCrew
Writing application                      : VirtualDubMod 1.5.10.2 (build 2540/release)
Writing library                          : VirtualDubMod build 2540/release

Video
ID                                       : 0
Format                                   : MPEG-4 Visual
Format profile                           : [email protected]
Format settings, BVOP                    : No
Format settings, QPel                    : No
Format settings, GMC                     : No warppoints
Format settings, Matrix                  : Default (H.263)
Codec ID                                 : XVID
Codec ID/Hint                            : XviD
Duration                                 : 1h 34mn
Bit rate                                 : 1 487 Kbps
Width                                    : 720 pixels
Height                                   : 304 pixels
Display aspect ratio                     : 2.40:1
Frame rate                               : 24.000 fps
Color space                              : YUV
Chroma subsampling                       : 4:2:0
Bit depth                                : 8 bits
Scan type                                : Progressive
Compression mode                         : Lossy
Bits/(Pixel*Frame)                       : 0.283
Stream size                              : 1 006 MiB (66%)
Writing library                          : XviD 64

Audio #1
ID                                       : 1
Format                                   : AC-3
Format/Info                              : Audio Coding 3
Mode extension                           : CM (complete main)
Codec ID                                 : 2000
Duration                                 : 1h 34mn
Bit rate mode                            : Constant
Bit rate                                 : 384 Kbps
Channel(s)                               : 6 channels
Channel positions                        : Front: L C R, Side: L R, LFE
Sampling rate                            : 48.0 KHz
Bit depth                                : 16 bits
Compression mode                         : Lossy
Stream size                              : 260 MiB (17%)
Alignment                                : Split accross interleaves
Interleave, duration                     : 42 ms (1.00 video frame)
Interleave, preload duration             : 500 ms

Audio #2
ID                                       : 2
Format                                   : AC-3
Format/Info                              : Audio Coding 3
Mode extension                           : CM (complete main)
Codec ID                                 : 2000
Duration                                 : 1h 34mn
Bit rate mode                            : Constant
Bit rate                                 : 384 Kbps
Channel(s)                               : 6 channels
Channel positions                        : Front: L C R, Side: L R, LFE
Sampling rate                            : 48.0 KHz
Bit depth                                : 16 bits
Compression mode                         : Lossy
Stream size                              : 260 MiB (17%)
Alignment                                : Split accross interleaves
Interleave, duration                     : 42 ms (1.00 video frame)
Interleave, preload duration             : 500 ms




Similar Torrents
Type Name Size Added S L
Cam/TS Mile 22 2018 720p HDCAM-1XBET
2.44 GB 2018-08-17 19:35:55 8217 2483
h.264/x264 Mile.22.2018.HDRip.XviD.AC3-EVO[EtMovies]
1.38 GB 2018-10-23 01:45:32 7080 2273
Divx/Xvid Mile.22.2018.HDRip.XviD.AC3-EVO
1.38 GB 2018-10-23 05:40:29 5579 2192
Cam/TS Mile.22.2018.HDCAM.XViD.AC3-ETRG
1.15 GB 2018-08-18 10:00:23 2900 1451
HD Mile 22 2018 1080p WEBRip x264 [MW]
1.75 GB 2018-10-24 15:24:35 1812 812
HD Mile.22.2018.1080p.WEB-HD.x264.AAC.-.Hon3yHD
1.83 GB 2018-10-24 22:52:56 1140 705
HD Mile.22.2018.1080p.WEB-DL.DD5.1.H264-CMRG[EtHD]
3.25 GB 2018-10-30 07:02:58 1004 509
HD Mile.22.2018.1080p.HDRip.X264.AC3-EVO[EtHD]
10.47 GB 2018-10-23 10:52:46 730 618
HD Mile 22 - Red Zone - 22 miglia di fuoco (2018).720...
1.81 GB 2019-03-22 22:51:21 666 469
Cam/TS Mile 22 2018 Movies HD Cam x264 Clean Audio AAC Ne...
705.18 MB 2018-08-18 08:38:15 611 346

Loading...


Trackers:
udp://tracker.coppersurfer.tk:6969/announce

Mile 22 - Red Zone - 22 miglia di fuoco (2018).XviD.italian.english.Ac3-5.1.sub.ita.NUita.eng-MIRCrew
Files
Mile 22 (2018).XviD.ita.eng.sub.ita.eng.NUita-MIRCrew.avi (1.50 GB)
Mile 22 (2018).XviD.ita.eng.sub.ita.eng.NUita-MIRCrew.eng.srt (98.42 kB)
Mile 22 (2018).XviD.ita.eng.sub.ita.eng.NUita-MIRCrew.forcedeng.srt (2.40 kB)
Mile 22 (2018).XviD.ita.eng.sub.ita.eng.NUita-MIRCrew.ita.srt (78.80 kB)
Mile 22 (2018).XviD.ita.eng.sub.ita.eng.NUita-MIRCrew.NUita.srt (80.20 kB)
Mile 22 (2018).XviD.ita.eng.sub.ita.eng.NUita-MIRCrew.srt (5.30 kB)


Comments:
No comments still posted
Loading...
Powered by TT | Page Generated In 0.121476 secs.
| RSS Feed | Feed Info