[Login] or [Signup]


Warning! Use a VPN When Downloading Torrents!
Your IP Address is .   Location is
Your Internet Provider is tracking your torrent activity!  Hide your IP ADDRESS with a VPN!
We strongly recommend using ExpressVPN to anonymize your torrenting. 30 Day Money Back Guarantee!
Try it Now!
First Cams

Xvid/x264



Non-English

Site Friends
      ETTV

      WorldWide Torrents

      Free Tutorials

      Aiosearch


Loading...

Mortal Engines - Macchine mortali (2018).XviD.italian.english.Ac3-5.1.multisub-MIRCrew


Download torrent:    
Info Hash:  a63ccd9302efcd676ae7d9d6797d9219196ce7d1
Category:  Movies  > Divx/Xvid
Torrent language:  English  
Seeds | Leech:  200 | 236
Complete:   1,480
Health:   
Total Size:  1.94 GB
Added By:        robbyrs
Date Added:  24-03-2019 06:22:pm | Last Edit:  25-03-2019 10:36:am

Un système d'onglets en javascript
Description Trackers Files Comments Download
Mortal Engines - Macchine mortali  (2018).XviD.italian.english.Ac3-5.1.multisub-MIRCrew


NO FOUND ONLY ORIGINAL RELEASE

My release is always in double track audio italian and Original audio
for select it use VLC or dvd player home
not use wmp


Macchine mortali - Mortal Engines (2018)










Titolo originale Mortal Engines
Lingua originale inglese
Paese di produzione Stati Uniti d'America, Nuova Zelanda
Anno 2018
Durata 128 min
Genere fantastico, fantascienza, avventura
Regia Christian Rivers
Soggetto dal romanzo di Philip Reeve
Sceneggiatura Peter Jackson, Philippa Boyens, Fran Walsh



   Hera Hilmar: Hester Shaw
   Robert Sheehan: Tom Natsworthy
   Jihae: Anna Fang
   Hugo Weaving: Thaddeus Valentine
   Leila George: Katherine Valentine
   Stephen Lang: Shrike
   Colin Salmon: dott. Chudleigh Pomeroy
   Ronan Raftery: Bevis Pod
   Patrick Malahide: Magnus Crome
   Andrew Lees: Herbert Melliphant
   Peter Jackson: Sooty Pete



Tom Natsworthy è un londinese di sedici anni che ha sempre vissuto solo nella sua città natale trazionista, e i suoi piedi non hanno mai toccato erba, fango o terra.



In a post-apocalyptic world where cities ride on wheels and consume each other to survive, two people meet in London and try to stop a conspiracy.









General
Complete name                            : Macchine mortali - Mortal Engines (2018).XviD.ita.eng.multisub-MIRCrew\Macchine mortali - Mortal Engines (2018).XviD.ita.eng.multisub-MIRCrew.avi
Format                                   : AVI
Format/Info                              : Audio Video Interleave
Format profile                           : OpenDML
File size                                : 1.92 GiB
Duration                                 : 2h 8mn
Overall bit rate                         : 2 146 Kbps
Movie name                               : MIRCrew
Writing application                      : Lavf54.63.100

Video
ID                                       : 0
Format                                   : MPEG-4 Visual
Format profile                           : [email protected]
Format settings, BVOP                    : No
Format settings, QPel                    : No
Format settings, GMC                     : No warppoints
Format settings, Matrix                  : Default (H.263)
Codec ID                                 : XVID
Codec ID/Hint                            : XviD
Duration                                 : 2h 8mn
Bit rate                                 : 1 361 Kbps
Width                                    : 720 pixels
Height                                   : 288 pixels
Display aspect ratio                     : 2.40:1
Frame rate                               : 23.976 fps
Color space                              : YUV
Chroma subsampling                       : 4:2:0
Bit depth                                : 8 bits
Scan type                                : Progressive
Compression mode                         : Lossy
Bits/(Pixel*Frame)                       : 0.274
Stream size                              : 1.22 GiB (63%)
Title                                    : MIRCrew
Writing library                          : XviD 64

Audio #1
ID                                       : 1
Format                                   : AC-3
Format/Info                              : Audio Coding 3
Codec ID                                 : 00001000-0000-0020-8000-00AA00389B71
Duration                                 : 2h 8mn
Bit rate                                 : 384 Kbps
Channel(s)                               : 6 channels
Channel positions                        : Front: L C R, Back: L R, LFE
Sampling rate                            : 48.0 KHz
Bit depth                                : 16 bits
Compression mode                         : Lossy
Stream size                              : 353 MiB (18%)
Interleave, duration                     : 32 ms (0.77 video frame)
Title                                    : Ita Ac3 5.1

Audio #2
ID                                       : 2
Format                                   : AC-3
Format/Info                              : Audio Coding 3
Codec ID                                 : 00001000-0000-0020-8000-00AA00389B71
Duration                                 : 2h 8mn
Bit rate                                 : 384 Kbps
Channel(s)                               : 6 channels
Channel positions                        : Front: L C R, Back: L R, LFE
Sampling rate                            : 48.0 KHz
Bit depth                                : 16 bits
Compression mode                         : Lossy
Stream size                              : 353 MiB (18%)
Interleave, duration                     : 32 ms (0.77 video frame)
Title                                    : Eng Ac3 5.1








Similar Torrents
Type Name Size Added S L
Divx/Xvid Mortal.Engines.2018.HC.HDRip.XviD.AC3-EVO
1.37 GB 2019-01-22 20:05:13 32775 11037
Cam/TS Mortal Engines 2018 720p HDCAM-1XBET
2.44 GB 2018-12-06 23:41:56 5962 4582
Divx/Xvid Mortal.Engines.2018.HDRip.XviD.AC3-EVO
1.37 GB 2019-01-30 23:27:54 4443 2288
HD Zabójcze maszyny / Mortal Engines (2018) (BDRIP) ...
2.05 GB 2019-02-02 21:28:04 3795 562
HD Mortal.Engines.2018.V2.1080p.WEB-DL.H264.AC3-EVO[E...
4.38 GB 2019-02-02 18:26:10 2254 778
Cam/TS Mortal.Engines.2018.HDCAM.XViD.AC3-ETRG
1.28 GB 2018-12-07 14:02:17 2152 2066
Dubs/Dual Audio Mortal Engines (2018) HDTS 720p [Hindi (Clean) + E...
1.16 GB 2018-12-07 12:42:26 1997 2171
HD Mortal.Engines.2018.1080p.WEB-DL.H264.AC3-EVO[EtHD...
4.21 GB 2019-01-30 23:20:15 1908 986
Dubs/Dual Audio Mortal Engines 2018 [Hindi + English] HC HDRip x26...
1,003.99 MB 2019-01-23 15:30:31 1885 1735
Cam/TS Mortal.Engines.2018.HDCAM.x264.AC3-MP4KiNG
1.03 GB 2018-12-08 17:22:07 1837 1498

Loading...


Trackers:
udp://tracker.coppersurfer.tk:6969/announce

Mortal Engines - Macchine mortali (2018).XviD.italian.english.Ac3-5.1.multisub-MIRCrew
Files
Macchine mortali - Mortal Engines (2018).XviD.ita.eng.multisub-MIRCrew.avi (1.92 GB)
Macchine mortali - Mortal Engines (2018).XviD.ita.eng.multisub-MIRCrew.eng.idx (58.38 kB)
Macchine mortali - Mortal Engines (2018).XviD.ita.eng.multisub-MIRCrew.eng.sub (5.77 MB)
Macchine mortali - Mortal Engines (2018).XviD.ita.eng.multisub-MIRCrew.fre.idx (47.87 kB)
Macchine mortali - Mortal Engines (2018).XviD.ita.eng.multisub-MIRCrew.fre.sub (5.18 MB)
Macchine mortali - Mortal Engines (2018).XviD.ita.eng.multisub-MIRCrew.spa.idx (58.82 kB)
Macchine mortali - Mortal Engines (2018).XviD.ita.eng.multisub-MIRCrew.spa.sub (6.16 MB)
Macchine mortali - Mortal Engines (2018).XviD.ita.eng.multisub-MIRCrew.srt (1.47 kB)


Comments:
No comments still posted
Loading...
Powered by TT | Page Generated In 0.125344 secs.
| RSS Feed | Feed Info