Warning! Use a VPN When Downloading Torrents!
Your IP Address is .   Location is
Your Internet Provider is tracking your torrent activity!  Hide your IP ADDRESS with a VPN!
We strongly recommend using Trust.Zone VPN to anonymize your torrenting. It's FREE!
Get VPN Now for FREE!
First Cams

Xvid/x264



Non-English

Site Friends
      ETTV

      WorldWide Torrents

      Free Tutorials

      Aiosearch


Loading...

Mortal Engines - Macchine mortali (2018).720p.H264.italian.english.Ac3-5.1.multisub-MIRCrew


Download torrent:      
Info Hash:  ced94e294d547b551566274c9bb1b5a08e9219f9
Category:  Movies  > HD
Torrent language:  English  
Seeds | Leech:  451 | 382
Complete:   3,052
Health:   
Total Size:  2.54 GB
Added By:        robbyrs
Date Added:  24-03-2019 06:00:pm | Last Edit:  25-03-2019 10:48:am

Un système d'onglets en javascript
Description Trackers Files Comments Download
Mortal Engines - Macchine mortali  (2018).720p.H264.italian.english.Ac3-5.1.multisub-MIRCrew


NO FOUND ONLY ORIGINAL RELEASE

My release is always in double track audio italian and Original audio
for select it use VLC or dvd player home
not use wmp


Macchine mortali - Mortal Engines (2018)

Quality MIRCrew on HD 720p da  2,5 gb










Titolo originale Mortal Engines
Lingua originale inglese
Paese di produzione Stati Uniti d'America, Nuova Zelanda
Anno 2018
Durata 128 min
Genere fantastico, fantascienza, avventura
Regia Christian Rivers
Soggetto dal romanzo di Philip Reeve
Sceneggiatura Peter Jackson, Philippa Boyens, Fran Walsh



   Hera Hilmar: Hester Shaw
   Robert Sheehan: Tom Natsworthy
   Jihae: Anna Fang
   Hugo Weaving: Thaddeus Valentine
   Leila George: Katherine Valentine
   Stephen Lang: Shrike
   Colin Salmon: dott. Chudleigh Pomeroy
   Ronan Raftery: Bevis Pod
   Patrick Malahide: Magnus Crome
   Andrew Lees: Herbert Melliphant
   Peter Jackson: Sooty Pete



Tom Natsworthy è un londinese di sedici anni che ha sempre vissuto solo nella sua città natale trazionista, e i suoi piedi non hanno mai toccato erba, fango o terra.



In a post-apocalyptic world where cities ride on wheels and consume each other to survive, two people meet in London and try to stop a conspiracy.





General
Unique ID                                : 253617682429291452608510999789680452725 (0xBECCFD28A8DC8C37109C73CBDB33E475)
Complete name                            : Macchine mortali - Mortal Engines (2018).720p.h264.ita.eng.sub.ita.eng.fre.spa-MIRCrew\Macchine mortali - Mortal Engines (2018).720p.h264.ita.eng.multisub-MIRCrew.mkv
Format                                   : Matroska
Format version                           : Version 4 / Version 2
File size                                : 2.52 GiB
Duration                                 : 2h 8mn
Overall bit rate                         : 2 816 Kbps
Movie name                               : MIRCrew
Encoded date                             : UTC 2019-03-22T15:21:05Z
Writing application                      : mkvmerge v26.0.0 ('In The Game') 64-bit
Writing library                          : Lavf55.12.0

Video
ID                                       : 1
Format                                   : AVC
Format/Info                              : Advanced Video Codec
Format profile                           : [email protected]
Format settings, CABAC                   : Yes
Format settings, ReFrames                : 4 frames
Codec ID                                 : V_MPEG4/ISO/AVC
Duration                                 : 2h 8mn
Bit rate                                 : 2 000 Kbps
Width                                    : 1 280 pixels
Height                                   : 528 pixels
Display aspect ratio                     : 2.40:1
Frame rate                               : 23.976 fps
Color space                              : YUV
Chroma subsampling                       : 4:2:0
Bit depth                                : 8 bits
Scan type                                : Progressive
Bits/(Pixel*Frame)                       : 0.123
Stream size                              : 1.73 GiB (68%)
Title                                    : MIRCrew
Writing library                          : x264 core 142 r2479 dd79a61
Encoding settings                        : cabac=1 / ref=1 / deblock=1:0:0 / analyse=0x1:0x111 / me=hex / subme=2 / psy=1 / psy_rd=1.00:0.00 / mixed_ref=0 / me_range=16 / chroma_me=1 / trellis=0 / 8x8dct=0 / cqm=0 / deadzone=21,11 / fast_pskip=1 / chroma_qp_offset=0 / threads=6 / lookahead_threads=2 / sliced_threads=0 / nr=0 / decimate=1 / interlaced=0 / bluray_compat=0 / constrained_intra=0 / bframes=3 / b_pyramid=2 / b_adapt=1 / b_bias=0 / direct=1 / weightb=1 / open_gop=0 / weightp=1 / keyint=240 / keyint_min=24 / scenecut=40 / intra_refresh=0 / rc_lookahead=10 / rc=abr / mbtree=1 / bitrate=2000 / ratetol=1.0 / qcomp=0.60 / qpmin=0 / qpmax=69 / qpstep=4 / vbv_maxrate=50000 / vbv_bufsize=62500 / nal_hrd=none / filler=0 / ip_ratio=1.40 / aq=1:1.00
Language                                 : Italian
Default                                  : Yes
Forced                                   : No
DURATION                                 : 02:08:21.110000000
NUMBER_OF_FRAMES                         : 184642
NUMBER_OF_BYTES                          : 1907465293
_STATISTICS_WRITING_APP                  : mkvmerge v26.0.0 ('In The Game') 64-bit
_STATISTICS_WRITING_DATE_UTC             : 2019-03-22 16:53:13
_STATISTICS_TAGS                         : BPS DURATION NUMBER_OF_FRAMES NUMBER_OF_BYTES
Color primaries                          : BT.709-5, BT.1361, IEC 61966-2-4, SMPTE RP177
Transfer characteristics                 : BT.709-5, BT.1361
Matrix coefficients                      : BT.709-5, BT.1361, IEC 61966-2-4 709, SMPTE RP177

Audio #1
ID                                       : 2
Format                                   : AC-3
Format/Info                              : Audio Coding 3
Mode extension                           : CM (complete main)
Codec ID                                 : A_AC3
Duration                                 : 2h 8mn
Bit rate mode                            : Constant
Bit rate                                 : 448 Kbps
Channel(s)                               : 6 channels
Channel positions                        : Front: L C R, Side: L R, LFE
Sampling rate                            : 48.0 KHz
Bit depth                                : 16 bits
Compression mode                         : Lossy
Delay relative to video                  : -5ms
Stream size                              : 411 MiB (16%)
Title                                    : Ita Ac3 5.1
Language                                 : Italian
Default                                  : Yes
Forced                                   : No
DURATION                                 : 02:08:21.056000000
NUMBER_OF_FRAMES                         : 240658
NUMBER_OF_BYTES                          : 431259136
_STATISTICS_WRITING_APP                  : mkvmerge v26.0.0 ('In The Game') 64-bit
_STATISTICS_WRITING_DATE_UTC             : 2019-03-22 16:53:13
_STATISTICS_TAGS                         : BPS DURATION NUMBER_OF_FRAMES NUMBER_OF_BYTES

Audio #2
ID                                       : 3
Format                                   : AC-3
Format/Info                              : Audio Coding 3
Mode extension                           : CM (complete main)
Codec ID                                 : A_AC3
Duration                                 : 2h 8mn
Bit rate mode                            : Constant
Bit rate                                 : 384 Kbps
Channel(s)                               : 6 channels
Channel positions                        : Front: L C R, Side: L R, LFE
Sampling rate                            : 48.0 KHz
Bit depth                                : 16 bits
Compression mode                         : Lossy
Delay relative to video                  : -5ms
Stream size                              : 353 MiB (14%)
Title                                    : Eng Ac3 5.1
Language                                 : English
Default                                  : No
Forced                                   : No
DURATION                                 : 02:08:21.120000000
NUMBER_OF_FRAMES                         : 240660
NUMBER_OF_BYTES                          : 369653760
_STATISTICS_WRITING_APP                  : mkvmerge v26.0.0 ('In The Game') 64-bit
_STATISTICS_WRITING_DATE_UTC             : 2019-03-22 16:53:13
_STATISTICS_TAGS                         : BPS DURATION NUMBER_OF_FRAMES NUMBER_OF_BYTES

Menu
00:00:00.000                             : :Chapter 1
00:09:24.564                             : :Chapter 2
00:16:13.430                             : :Chapter 3
00:24:20.751                             : :Chapter 4
00:31:24.757                             : :Chapter 5
00:35:53.192                             : :Chapter 6
00:41:27.943                             : :Chapter 7
00:44:53.899                             : :Chapter 8
00:50:16.930                             : :Chapter 9
00:54:21.299                             : :Chapter 10
01:00:51.522                             : :Chapter 11
01:07:12.194                             : :Chapter 12
01:11:12.977                             : :Chapter 13
01:17:37.819                             : :Chapter 14
01:25:25.745                             : :Chapter 15
01:33:30.605                             : :Chapter 16
01:39:28.712                             : :Chapter 17
01:47:58.346                             : :Chapter 18
01:52:11.725                             : :Chapter 19
01:58:33.606                             : :Chapter 20







Similar Torrents
Type Name Size Added S L
Divx/Xvid Mortal.Engines.2018.HC.HDRip.XviD.AC3-EVO
1.37 GB 2019-01-22 20:05:13 32775 11037
Cam/TS Mortal Engines 2018 720p HDCAM-1XBET
2.44 GB 2018-12-06 23:41:56 5962 4582
Divx/Xvid Mortal.Engines.2018.HDRip.XviD.AC3-EVO
1.37 GB 2019-01-30 23:27:54 4443 2288
HD Zabójcze maszyny / Mortal Engines (2018) (BDRIP) ...
2.05 GB 2019-02-02 21:28:04 3795 562
Dubs/Dual Audio Mortal Engines 2018 BluRay Dual Audio [Hindi 5.1 +...
1.29 GB 2019-05-05 10:11:49 2733 2363
HD Mortal.Engines.2018.V2.1080p.WEB-DL.H264.AC3-EVO[E...
4.38 GB 2019-02-02 18:26:10 2254 778
Cam/TS Mortal.Engines.2018.HDCAM.XViD.AC3-ETRG
1.28 GB 2018-12-07 14:02:17 2152 2066
Dubs/Dual Audio Mortal Engines (2018) HDTS 720p [Hindi (Clean) + E...
1.16 GB 2018-12-07 12:42:26 1997 2171
HD Mortal.Engines.2018.1080p.WEB-DL.H264.AC3-EVO[EtHD...
4.21 GB 2019-01-30 23:20:15 1908 986
Dubs/Dual Audio Mortal Engines 2018 [Hindi + English] HC HDRip x26...
1,003.99 MB 2019-01-23 15:30:31 1885 1735

Loading...


Trackers:
udp://tracker.coppersurfer.tk:6969/announce

Mortal Engines - Macchine mortali (2018).720p.H264.italian.english.Ac3-5.1.multisub-MIRCrew
Files
Macchine mortali - Mortal Engines (2018).720p.h264.ita.eng.multisub-MIRCrew.eng.idx (58.38 kB)
Macchine mortali - Mortal Engines (2018).720p.h264.ita.eng.multisub-MIRCrew.eng.sub (5.77 MB)
Macchine mortali - Mortal Engines (2018).720p.h264.ita.eng.multisub-MIRCrew.fre.idx (47.87 kB)
Macchine mortali - Mortal Engines (2018).720p.h264.ita.eng.multisub-MIRCrew.fre.sub (5.18 MB)
Macchine mortali - Mortal Engines (2018).720p.h264.ita.eng.multisub-MIRCrew.mkv (2.52 GB)
Macchine mortali - Mortal Engines (2018).720p.h264.ita.eng.multisub-MIRCrew.spa.idx (58.82 kB)
Macchine mortali - Mortal Engines (2018).720p.h264.ita.eng.multisub-MIRCrew.spa.sub (6.16 MB)
Macchine mortali - Mortal Engines (2018).720p.h264.ita.eng.multisub-MIRCrew.srt (1.47 kB)


Comments:
No comments still posted
Loading...
Powered by TT | Page Generated In 0.157529 secs.
| RSS Feed | Feed Info