[Login] or [Signup]


Warning! Use a VPN When Downloading Torrents!
Your IP Address is .   Location is
Your Internet Provider is tracking your torrent activity!  Hide your IP ADDRESS with a VPN!
We strongly recommend using ExpressVPN to anonymize your torrenting. 30 Day Money Back Guarantee!
Try it Now!
First Cams

Xvid/x264



Non-English

Site Friends
      ETTV

      WorldWide Torrents

      Free Tutorials

      Aiosearch


Loading...

Bumblebee (2018).720p.H264.italian.english.Ac3-5.1.Ita Eng-MIRCrew


Download torrent:    
Info Hash:  ed4f2629b3346f7cc073157b81133b576f2d3293
Category:  Movies  > HD
Torrent language:  English  
Seeds | Leech:  837 | 189
Complete:   6,282
Health:   
Total Size:  2.27 GB
Added By:        robbyrs
Date Added:  24-03-2019 04:04:pm | Last Edit:  25-03-2019 08:21:am

IMDB
Bumblebee
Bumblebee Released 21 Dec 2018

Genre Action, Adventure, Sci-Fi

Director Travis Knight

Writer Christina Hodson, Christina Hodson (story by)

Actors Hailee Steinfeld, Jorge Lendeborg Jr., John Cena, Jason Drucker

Plot On the run in the year of 1987, Bumblebee finds refuge in a junkyard in a small Californian beach town. Charlie, on the cusp of turning 18 and trying to find her place in the world, discovers Bumblebee, battle-scarred and broken.

Link http://www.imdb.com/title/tt4701182

Last Updated 23-04-2019 21:22:44
7.0

Votes 70,389

Un système d'onglets en javascript
Description Trackers Files Comments Download
Bumblebee (2018).720p.H264.italian.english.Ac3-5.1.Ita Eng-MIRCrew


NO FOUND ONLY ORIGINAL RELEASE

My release is always in double track audio italian and Original audio
for select it use VLC or dvd player home
not use wmp


Bumblebee (2018)

Quality MIRCrew on HD 720p da  2,3 gb










Titolo originale Bumblebee
Lingua originale inglese
Paese di produzione Stati Uniti d'America
Anno 2018
Durata 114 min[1]
Rapporto 1.85 : 1
Genere fantascienza, azione, avventura
Regia Travis Knight
Sceneggiatura Christina Hodson



   Hailee Steinfeld: Charlie Watson
   John Cena: agente Jack Burns
   Jorge Lendeborg Jr.: Memo
   John Ortiz: dottor Powell
   Pamela Adlon: Sally Watson
   Jason Drucker: Otis Watson
   Rachel Crow: Celia
   Kenneth Choi: Ken
   Gracie Dzienny: Tina
   Ricardo Hoyos: Tripp
   Lenny Jacobson: Roy
   Megyn Price: Amber
   Stephen Schneider: Ron
   Len Cariou: zio Hank
   Glynn Turman: gen. Whalen



Su Cybertron infuria da secoli una guerra tra due fazioni avversarie: gli Autobot guidati da Optimus Prime e i Decepticon guidati da Shockwave.



On the run in the year of 1987, Bumblebee finds refuge in a junkyard in a small Californian beach town. Charlie, on the cusp of turning 18 and trying to find her place in the world, discovers Bumblebee, battle-scarred and broken





General
Unique ID                                : 237886319860663193016965212962378243305 (0xB2F73D19FFE8DA639367E2D3AF085CE9)
Complete name                            : Bumblebee (2018).720p.h264.ita.eng.sub.ita.eng-MIRCrew\Bumblebee (2018).720p.h264.ita.eng.sub.ita.eng-MIRCrew.mkv
Format                                   : Matroska
Format version                           : Version 2
File size                                : 2.27 GiB
Duration                                 : 1h 53mn
Overall bit rate                         : 2 855 Kbps
Movie name                               : MIRCrew
Encoded date                             : UTC 2019-03-23T23:40:24Z
Writing application                      : mkvmerge v5.4.0 ('Piper') built on Mar 10 2012 13:34:39
Writing library                          : Lavf55.12.0

Video
ID                                       : 1
Format                                   : AVC
Format/Info                              : Advanced Video Codec
Format profile                           : [email protected]
Format settings, CABAC                   : Yes
Format settings, ReFrames                : 4 frames
Codec ID                                 : V_MPEG4/ISO/AVC
Duration                                 : 1h 53mn
Bit rate                                 : 1 902 Kbps
Nominal bit rate                         : 2 000 Kbps
Width                                    : 1 280 pixels
Height                                   : 720 pixels
Display aspect ratio                     : 16:9
Frame rate                               : 23.976 fps
Color space                              : YUV
Chroma subsampling                       : 4:2:0
Bit depth                                : 8 bits
Scan type                                : Progressive
Bits/(Pixel*Frame)                       : 0.086
Stream size                              : 1.51 GiB (67%)
Title                                    : MIRCrew
Writing library                          : x264 core 142 r2479 dd79a61
Encoding settings                        : cabac=1 / ref=1 / deblock=1:0:0 / analyse=0x1:0x111 / me=hex / subme=2 / psy=1 / psy_rd=1.00:0.00 / mixed_ref=0 / me_range=16 / chroma_me=1 / trellis=0 / 8x8dct=0 / cqm=0 / deadzone=21,11 / fast_pskip=1 / chroma_qp_offset=0 / threads=6 / lookahead_threads=2 / sliced_threads=0 / nr=0 / decimate=1 / interlaced=0 / bluray_compat=0 / constrained_intra=0 / bframes=3 / b_pyramid=2 / b_adapt=1 / b_bias=0 / direct=1 / weightb=1 / open_gop=0 / weightp=1 / keyint=240 / keyint_min=24 / scenecut=40 / intra_refresh=0 / rc_lookahead=10 / rc=abr / mbtree=1 / bitrate=2000 / ratetol=1.0 / qcomp=0.60 / qpmin=0 / qpmax=69 / qpstep=4 / vbv_maxrate=50000 / vbv_bufsize=62500 / nal_hrd=none / filler=0 / ip_ratio=1.40 / aq=1:1.00
Language                                 : Italian
Default                                  : Yes
Forced                                   : No
Color primaries                          : BT.709-5, BT.1361, IEC 61966-2-4, SMPTE RP177
Transfer characteristics                 : BT.709-5, BT.1361
Matrix coefficients                      : BT.709-5, BT.1361, IEC 61966-2-4 709, SMPTE RP177

Audio #1
ID                                       : 2
Format                                   : AC-3
Format/Info                              : Audio Coding 3
Mode extension                           : CM (complete main)
Codec ID                                 : A_AC3
Duration                                 : 1h 53mn
Bit rate mode                            : Constant
Bit rate                                 : 448 Kbps
Channel(s)                               : 6 channels
Channel positions                        : Front: L C R, Side: L R, LFE
Sampling rate                            : 48.0 KHz
Bit depth                                : 16 bits
Compression mode                         : Lossy
Delay relative to video                  : -83ms
Stream size                              : 365 MiB (16%)
Title                                    : ita ac3 5.1
Language                                 : Italian
Default                                  : No
Forced                                   : No

Audio #2
ID                                       : 3
Format                                   : AC-3
Format/Info                              : Audio Coding 3
Mode extension                           : CM (complete main)
Codec ID                                 : A_AC3
Duration                                 : 1h 53mn
Bit rate mode                            : Constant
Bit rate                                 : 448 Kbps
Channel(s)                               : 6 channels
Channel positions                        : Front: L C R, Side: L R, LFE
Sampling rate                            : 48.0 KHz
Bit depth                                : 16 bits
Compression mode                         : Lossy
Delay relative to video                  : -5ms
Stream size                              : 365 MiB (16%)
Title                                    : eng ac3 5.1
Language                                 : English
Default                                  : No
Forced                                   : No


Menu
00:00:00.000                             : :Chapter 1
00:03:30.835                             : :Chapter 2
00:12:16.610                             : :Chapter 3
00:16:56.807                             : :Chapter 4
00:21:03.136                             : :Chapter 5
00:26:42.684                             : :Chapter 6
00:32:33.576                             : :Chapter 7
00:39:44.173                             : :Chapter 8
00:45:18.716                             : :Chapter 9
00:50:43.749                             : :Chapter 10
00:54:16.336                             : :Chapter 11
01:01:10.833                             : :Chapter 12
01:06:27.024                             : :Chapter 13
01:11:39.628                             : :Chapter 14
01:16:08.188                             : :Chapter 15
01:21:37.225                             : :Chapter 16
01:25:08.728                             : :Chapter 17
01:30:15.493                             : :Chapter 18
01:36:46.884                             : :Chapter 19
01:43:52.684                             : :Chapter 20
01:49:43.326                             : :Chapter 21







Similar Torrents
Type Name Size Added S L
Divx/Xvid Bumblebee.2018.HC.HDRip.XviD.AC3-EVO
1.37 GB 2019-01-18 19:03:50 35692 16065
Divx/Xvid Bumblebee.2018.HDRip.XviD.AC3-EVO
1.24 GB 2019-03-19 07:36:08 7182 4637
Divx/Xvid Bumblebee (2018) [MD] [HDRip] [XviD-KRT] [Dubbing ...
699.96 MB 2019-01-25 22:26:32 6712 2240
Cam/TS Bumblebee.2018.CAM.X264-MrTaco
1.29 GB 2018-12-16 14:21:50 5601 2243
Cam/TS Bumblebee 2018 NEW HDTS x264 AC3-ETRG
927.48 MB 2018-12-28 15:12:07 3478 2585
Divx/Xvid Bumblebee.2018.HC.HDRip.XViD.AC3-ETRG
1.35 GB 2019-01-19 13:08:23 3357 3218
Cam/TS Bumblebee 2018 NEW 720p HD-TS X264.LLG
1.31 GB 2019-01-02 08:03:03 3311 1768
Cam/TS Bumblebee 2018 NEW 720p HD-TS X264 SugarTits
2.04 GB 2018-12-28 12:20:21 3066 1135
Cam/TS Bumblebee 2018 720p HDCAM ENG SUB-ORCA88
2.44 GB 2018-12-14 10:49:47 2770 3340
Cam/TS Bumblebee 2018 NEW HD-TS XViD AC3-ETRG
1.27 GB 2018-12-29 10:33:51 2718 1596

Loading...


Trackers:
udp://tracker.coppersurfer.tk:6969/announce

Bumblebee (2018).720p.H264.italian.english.Ac3-5.1.Ita Eng-MIRCrew
Files
Bumblebee (2018).720p.h264.ita.eng.sub.ita.eng-MIRCrew.eng.srt (86.19 kB)
Bumblebee (2018).720p.h264.ita.eng.sub.ita.eng-MIRCrew.ita.srt (72.79 kB)
Bumblebee (2018).720p.h264.ita.eng.sub.ita.eng-MIRCrew.mkv (2.27 GB)
Bumblebee (2018).720p.h264.ita.eng.sub.ita.eng-MIRCrew.srt (3.32 kB)


Comments:
No comments still posted
Loading...
Powered by TT | Page Generated In 3.717581 secs.
| RSS Feed | Feed Info