[Login] or [Signup]


Warning! Use a VPN When Downloading Torrents!
Your IP Address is .   Location is
Your Internet Provider is tracking your torrent activity!  Hide your IP ADDRESS with a VPN!
We strongly recommend using ExpressVPN to anonymize your torrenting. 30 Day Money Back Guarantee!
Try it Now!
First Cams

Xvid/x264



Non-English

Site Friends
      ETTV

      WorldWide Torrents

      Free Tutorials

      Aiosearch


Loading...

Mile 22 - Red Zone - 22 miglia di fuoco (2018).720p.H264.italian.english.Ac3-5.1.sub.ita.NUita.eng-M...


Download torrent:    
Info Hash:  7c97401222308c321a803bff7b9ad327e08d1d1c
Category:  Movies  > HD
Torrent language:  English  
Seeds | Leech:  666 | 469
Complete:   2,187
Health:   
Total Size:  1.81 GB
Added By:        robbyrs
Date Added:  22-03-2019 10:51:pm | Last Edit:  23-03-2019 12:15:pm

Un système d'onglets en javascript
Description Trackers Files Comments Download
Mile 22 - Red Zone - 22 miglia di fuoco (2018).720p.H264.italian.english.Ac3-5.1.sub.ita.NUita.eng-MIRCrew


NO FOUND ONLY ORIGINAL RELEASE

My release is always in double track audio italian and Original audio
for select it use VLC or dvd player home
not use wmp

Red Zone - 22 miglia di fuoco - Mile 22 (2018)

Quality MIRCrew on HD 720p da  1,8 gb










GENERE: Azione
ANNO: 2018
REGIA: Peter Berg
PAESE: USA
DURATA: 94 Min



Mark Wahlberg, Lauren Cohan, Ronda Rousey, John Malkovich, Iko Uwais, Terry Kinney, David Garelik, Sala Baker, Poorna Jagannathan, Nikolai Nikolaeff, Carlo Alban, Natasha Goubskaya, Chae-rin Lee, Sam Medina



Sono 22 le miglia che l'agente della CIA James Silva (Mark Wahlberg) deve percorrere per giungere in aeroporto. Siamo in Indonesia e Silva insieme alla sua squadra deve scortare e proteggere un informatore compromesso, Li Noor (la star delle arti marziali Iko Uwais), agente delle forze speciali in possesso di informazioni sensibili.



An elite American intelligence officer, aided by a top-secret tactical command unit, tries to smuggle a mysterious police officer with sensitive information out of Indonesia.

 





General
Unique ID                                : 141353667979976386978110795649455218829 (0x6A57B9E7A9F6296FE4D0578D51B7E08D)
Complete name                            : Mile 22 (2018).720p.h264.ita.eng.sub.ita.eng.NUita-MIRCrew\Mile 22 (2018).720p.h264.ita.eng.sub.ita.eng.NUita-MIRCrew.mkv
Format                                   : Matroska
Format version                           : Version 4 / Version 2
File size                                : 1.81 GiB
Duration                                 : 1h 34mn
Overall bit rate                         : 2 733 Kbps
Movie name                               : MIRCrew
Encoded date                             : UTC 2019-03-22T11:04:51Z
Writing application                      : mkvmerge v26.0.0 ('In The Game') 64-bit
Writing library                          : Lavf55.12.0

Video
ID                                       : 1
Format                                   : AVC
Format/Info                              : Advanced Video Codec
Format profile                           : [email protected]
Format settings, CABAC                   : Yes
Format settings, ReFrames                : 4 frames
Codec ID                                 : V_MPEG4/ISO/AVC
Duration                                 : 1h 34mn
Bit rate                                 : 2 000 Kbps
Width                                    : 1 280 pixels
Height                                   : 528 pixels
Display aspect ratio                     : 2.40:1
Frame rate                               : 24.000 fps
Color space                              : YUV
Chroma subsampling                       : 4:2:0
Bit depth                                : 8 bits
Scan type                                : Progressive
Bits/(Pixel*Frame)                       : 0.123
Stream size                              : 1.27 GiB (70%)
Title                                    : MIRCrew
Writing library                          : x264 core 142 r2479 dd79a61
Encoding settings                        : cabac=1 / ref=1 / deblock=1:-1:-1 / analyse=0x1:0x111 / me=hex / subme=2 / psy=1 / psy_rd=1.00:0.15 / mixed_ref=0 / me_range=16 / chroma_me=1 / trellis=0 / 8x8dct=0 / cqm=0 / deadzone=21,11 / fast_pskip=1 / chroma_qp_offset=0 / threads=6 / lookahead_threads=2 / sliced_threads=0 / nr=0 / decimate=1 / interlaced=0 / bluray_compat=0 / constrained_intra=0 / bframes=3 / b_pyramid=2 / b_adapt=1 / b_bias=0 / direct=1 / weightb=1 / open_gop=0 / weightp=1 / keyint=240 / keyint_min=24 / scenecut=40 / intra_refresh=0 / rc_lookahead=10 / rc=abr / mbtree=1 / bitrate=2000 / ratetol=1.0 / qcomp=0.60 / qpmin=0 / qpmax=69 / qpstep=4 / vbv_maxrate=50000 / vbv_bufsize=62500 / nal_hrd=none / filler=0 / ip_ratio=1.40 / aq=1:1.00
Language                                 : Italian
Default                                  : Yes
Forced                                   : No
DURATION                                 : 01:34:34.334000000
NUMBER_OF_FRAMES                         : 136184
NUMBER_OF_BYTES                          : 1397509020
_STATISTICS_WRITING_APP                  : mkvmerge v26.0.0 ('In The Game') 64-bit
_STATISTICS_WRITING_DATE_UTC             : 2019-03-22 13:43:18
_STATISTICS_TAGS                         : BPS DURATION NUMBER_OF_FRAMES NUMBER_OF_BYTES
Color primaries                          : BT.709-5, BT.1361, IEC 61966-2-4, SMPTE RP177
Transfer characteristics                 : BT.709-5, BT.1361
Matrix coefficients                      : BT.709-5, BT.1361, IEC 61966-2-4 709, SMPTE RP177

Audio #1
ID                                       : 2
Format                                   : AC-3
Format/Info                              : Audio Coding 3
Mode extension                           : CM (complete main)
Codec ID                                 : A_AC3
Duration                                 : 1h 34mn
Bit rate mode                            : Constant
Bit rate                                 : 384 Kbps
Channel(s)                               : 6 channels
Channel positions                        : Front: L C R, Side: L R, LFE
Sampling rate                            : 48.0 KHz
Bit depth                                : 16 bits
Compression mode                         : Lossy
Delay relative to video                  : -5ms
Stream size                              : 261 MiB (14%)
Title                                    : Ita Ac3 5.1
Language                                 : Italian
Default                                  : Yes
Forced                                   : No
DURATION                                 : 01:34:54.048000000
NUMBER_OF_FRAMES                         : 177939
NUMBER_OF_BYTES                          : 273314304
_STATISTICS_WRITING_APP                  : mkvmerge v26.0.0 ('In The Game') 64-bit
_STATISTICS_WRITING_DATE_UTC             : 2019-03-22 13:43:18
_STATISTICS_TAGS                         : BPS DURATION NUMBER_OF_FRAMES NUMBER_OF_BYTES

Audio #2
ID                                       : 3
Format                                   : AC-3
Format/Info                              : Audio Coding 3
Mode extension                           : CM (complete main)
Codec ID                                 : A_AC3
Duration                                 : 1h 34mn
Bit rate mode                            : Constant
Bit rate                                 : 384 Kbps
Channel(s)                               : 6 channels
Channel positions                        : Front: L C R, Side: L R, LFE
Sampling rate                            : 48.0 KHz
Bit depth                                : 16 bits
Compression mode                         : Lossy
Delay relative to video                  : -5ms
Stream size                              : 261 MiB (14%)
Title                                    : Eng Ac3 5.1
Language                                 : English
Default                                  : No
Forced                                   : No
DURATION                                 : 01:34:39.456000000
NUMBER_OF_FRAMES                         : 177483
NUMBER_OF_BYTES                          : 272613888
_STATISTICS_WRITING_APP                  : mkvmerge v26.0.0 ('In The Game') 64-bit
_STATISTICS_WRITING_DATE_UTC             : 2019-03-22 13:43:18
_STATISTICS_TAGS                         : BPS DURATION NUMBER_OF_FRAMES NUMBER_OF_BYTES

Menu
00:00:00.000                             : :00:00:00.000
00:10:50.291                             : :00:10:50.083
00:19:42.541                             : :00:19:42.333
00:32:06.291                             : :00:32:06.167
00:41:25.166                             : :00:41:25.083
00:50:38.416                             : :00:50:38.250
01:01:27.916                             : :01:01:27.750
01:08:11.541                             : :01:08:11.333
01:14:18.208                             : :01:14:18.083
01:18:36.666                             : :01:18:36.542
01:29:48.166                             : :01:29:48.000




Similar Torrents
Type Name Size Added S L
Cam/TS Mile 22 2018 720p HDCAM-1XBET
2.44 GB 2018-08-17 19:35:55 8217 2483
h.264/x264 Mile.22.2018.HDRip.XviD.AC3-EVO[EtMovies]
1.38 GB 2018-10-23 01:45:32 7080 2273
Divx/Xvid Mile.22.2018.HDRip.XviD.AC3-EVO
1.38 GB 2018-10-23 05:40:29 5579 2192
Cam/TS Mile.22.2018.HDCAM.XViD.AC3-ETRG
1.15 GB 2018-08-18 10:00:23 2900 1451
HD Mile 22 2018 1080p WEBRip x264 [MW]
1.75 GB 2018-10-24 15:24:35 1812 812
HD Mile.22.2018.1080p.WEB-HD.x264.AAC.-.Hon3yHD
1.83 GB 2018-10-24 22:52:56 1140 705
HD Mile.22.2018.1080p.WEB-DL.DD5.1.H264-CMRG[EtHD]
3.25 GB 2018-10-30 07:02:58 1004 509
HD Mile.22.2018.1080p.HDRip.X264.AC3-EVO[EtHD]
10.47 GB 2018-10-23 10:52:46 730 618
Cam/TS Mile 22 2018 Movies HD Cam x264 Clean Audio AAC Ne...
705.18 MB 2018-08-18 08:38:15 611 346
Divx/Xvid Mile.22.2018.BRRip.XviD.AC3-EVO
1.43 GB 2018-11-13 23:03:15 589 223

Loading...


Trackers:
udp://tracker.coppersurfer.tk:6969/announce

Mile 22 - Red Zone - 22 miglia di fuoco (2018).720p.H264.italian.english.Ac3-5.1.sub.ita.NUita.eng-MIRCrew
Files
Mile 22 (2018).720p.h264.ita.eng.sub.ita.eng.NUita-MIRCrew.eng.srt (98.42 kB)
Mile 22 (2018).720p.h264.ita.eng.sub.ita.eng.NUita-MIRCrew.forcedeng.srt (2.40 kB)
Mile 22 (2018).720p.h264.ita.eng.sub.ita.eng.NUita-MIRCrew.ita.srt (78.80 kB)
Mile 22 (2018).720p.h264.ita.eng.sub.ita.eng.NUita-MIRCrew.mkv (1.81 GB)
Mile 22 (2018).720p.h264.ita.eng.sub.ita.eng.NUita-MIRCrew.NUita.srt (80.20 kB)
Mile 22 (2018).720p.h264.ita.eng.sub.ita.eng.NUita-MIRCrew.srt (5.30 kB)


Comments:
No comments still posted
Loading...
Powered by TT | Page Generated In 0.135287 secs.
| RSS Feed | Feed Info