[Login] or [Signup]


Warning! Use a VPN When Downloading Torrents!
Your IP Address is .   Location is
Your Internet Provider is tracking your torrent activity!  Hide your IP ADDRESS with a VPN!
We strongly recommend using ExpressVPN to anonymize your torrenting. 30 Day Money Back Guarantee!
Try it Now!
First Cams

Xvid/x264



Non-English

Site Friends
      ETTV

      WorldWide Torrents

      Free Tutorials

      Aiosearch


Loading...

Star Trek Discovery S02E10 The Red Angel 1080p AMZN WEBrip x265 5.1 AAC D0ct0rLew[SEV]


Download torrent:    
Info Hash:  ec78bc0fb447199d4b1b3e9c1f4d0111b7de6c6d
Category:  TV  > HEVC/x265
Torrent language:  English  
Seeds | Leech:  2,003 | 482
Complete:   8,422
Health:   
Total Size:  1.35 GB
Added By:        SEV
Date Added:  22-03-2019 06:31:pm | Last Edit:  23-03-2019 10:21:am

IMDB
Star Trek: Discovery
Star Trek: Discovery Released 24 Sep 2017

Genre Action, Adventure, Drama, Sci-Fi

Director N/A

Writer Alex Kurtzman, Bryan Fuller

Actors Sonequa Martin-Green, Doug Jones, Anthony Rapp, Mary Wiseman

Plot Ten years before Kirk, Spock, and the Enterprise, the USS Discovery discovers new worlds and lifeforms as one Starfleet officer learns to understand all things alien.

Link https://www.imdb.com/title/tt5171438/?ref_=nv_sr_1

Last Updated 23-04-2019 21:17:52
7.4

Votes 65,164

Un système d'onglets en javascript
Description Trackers Files Comments Download





Media Information
Unique ID                                : 272866385629562286835866135214385358868 (0xCD48277F8DD0002192DAEDDCE0D16814)
Complete name                            : Star Trek Discovery S02E10 The Red Angel 1080p AMZN WEBrip x265 5.1 AAC D0ct0rLew[SEV].mkv
Format                                   : Matroska
Format version                           : Version 4
File size                                : 1.35 GiB
Duration                                 : 48 min 5 s
Overall bit rate                         : 4 023 kb/s
Encoded date                             : UTC 2019-03-22 14:39:12
Writing application                      : mkvmerge v29.0.0 ('Like It Or Not') 64-bit
Writing library                          : libebml v1.3.6 + libmatroska v1.4.9

Video
ID                                       : 3
Format                                   : HEVC
Format/Info                              : High Efficiency Video Coding
Format profile                           : Main [email protected]@Main
Codec ID                                 : V_MPEGH/ISO/HEVC
Duration                                 : 48 min 5 s
Bit rate                                 : 3 572 kb/s
Width                                    : 1 920 pixels
Height                                   : 1 080 pixels
Display aspect ratio                     : 16:9
Frame rate mode                          : Constant
Frame rate                               : 24.000 FPS
Color space                              : YUV
Chroma subsampling                       : 4:2:0
Bit depth                                : 10 bits
Bits/(Pixel*Frame)                       : 0.072
Stream size                              : 1.20 GiB (89%)
Writing library                          : x265 3.0_RC+4-8aebc58efe5c:[Windows][MSVC 1920][64 bit] 10bit
Encoding settings                        : cpuid=1111039 / frame-threads=3 / numa-pools=8 / wpp / no-pmode / no-pme / no-psnr / no-ssim / log-level=2 / input-csp=1 / input-res=1920x1080 / interlace=0 / total-frames=69255 / level-idc=0 / high-tier=1 / uhd-bd=0 / ref=4 / no-allow-non-conformance / no-repeat-headers / annexb / no-aud / no-hrd / info / hash=0 / no-temporal-layers / open-gop / min-keyint=24 / keyint=250 / gop-lookahead=0 / bframes=8 / b-adapt=2 / b-pyramid / bframe-bias=0 / rc-lookahead=90 / lookahead-slices=4 / scenecut=40 / radl=0 / no-splice / no-intra-refresh / ctu=64 / min-cu-size=8 / no-rect / no-amp / max-tu-size=32 / tu-inter-depth=1 / tu-intra-depth=1 / limit-tu=0 / rdoq-level=2 / dynamic-rd=0.00 / no-ssim-rd / signhide / no-tskip / nr-intra=0 / nr-inter=0 / no-constrained-intra / no-strong-intra-smoothing / max-merge=3 / limit-refs=3 / limit-modes / me=3 / subme=7 / merange=92 / temporal-mvp / weightp / no-weightb / no-analyze-src-pics / deblock=0:0 / sao / no-sao-non-deblock / rd=4 / no-early-skip / rskip / no-fast-intra / no-tskip-fast / no-cu-lossless / no-b-intra / no-splitrd-skip / rdpenalty=0 / psy-rd=1.10 / psy-rdoq=1.00 / no-rd-refine / no-lossless / cbqpoffs=0 / crqpoffs=0 / rc=crf / crf=20.5 / qcomp=0.60 / qpstep=4 / stats-write=0 / stats-read=0 / ipratio=1.40 / pbratio=1.30 / aq-mode=3 / aq-strength=1.00 / cutree / zone-count=0 / no-strict-cbr / qg-size=32 / no-rc-grain / qpmax=69 / qpmin=0 / no-const-vbv / sar=0 / overscan=0 / videoformat=5 / range=0 / colorprim=2 / transfer=2 / colormatrix=2 / chromaloc=0 / display-window=0 / max-cll=0,0 / min-luma=0 / max-luma=1023 / log2-max-poc-lsb=8 / vui-timing-info / vui-hrd-info / slices=1 / no-opt-qp-pps / no-opt-ref-list-length-pps / no-multi-pass-opt-rps / scenecut-bias=0.05 / no-opt-cu-delta-qp / no-aq-motion / no-hdr / no-hdr-opt / no-dhdr10-opt / no-idr-recovery-sei / analysis-reuse-level=5 / scale-factor=0 / refine-intra=0 / refine-inter=0 / refine-mv=0 / refine-ctu-distortion=0 / no-limit-sao / ctu-info=0 / no-lowpass-dct / refine-analysis-type=0 / copy-pic=1 / max-ausize-factor=1.0 / no-dynamic-refine / no-single-sei / no-hevc-aq / qp-adaptation-range=1.00
Default                                  : Yes
Forced                                   : No

Audio
ID                                       : 2
Format                                   : AAC LC
Format/Info                              : Advanced Audio Codec Low Complexity
Codec ID                                 : A_AAC-2
Duration                                 : 48 min 5 s
Bit rate                                 : 448 kb/s
Channel(s)                               : 6 channels
Channel layout                           : C L R Ls Rs LFE
Sampling rate                            : 48.0 kHz
Frame rate                               : 46.875 FPS (1024 SPF)
Compression mode                         : Lossy
Delay relative to video                  : 9 ms
Stream size                              : 154 MiB (11%)
Default                                  : Yes
Forced                                   : No

Text
ID                                       : 1
Format                                   : UTF-8
Codec ID                                 : S_TEXT/UTF8
Codec ID/Info                            : UTF-8 Plain Text
Duration                                 : 47 min 48 s
Bit rate                                 : 78 b/s
Count of elements                        : 718
Stream size                              : 27.6 KiB (0%)
Default                                  : Yes
Forced                                   : No

We have no issue with individuals posting or re-uploading our torrents on a platform we aren't on. However, if this is something you'd like to do, please do so in a 'as-is' format. We ask that you do not create a new torrent, include all descriptions you see above including the SEV logo, tags, notes and screenshots.
If you'd like to become a permanent poster on a website we don't post to, feel free to get in contact with a Sublime Encoded Video member.

We are recruiting/training new members for SEV & seedbox providers as well as people to help out with subtitles.
As you already know, we deliver quality, so you know the standard.
If you're interested, feel free to contact any of the team members.


Similar Torrents
Type Name Size Added S L
x264 Star.Trek.Discovery.S02E09.WEBRip.x264-TBS[ettv]
355.34 MB 2019-03-15 02:54:42 11170 2324
x264 Star.Trek.Discovery.S02E01.WEBRip.x264-PBS[ettv]
390.25 MB 2019-01-18 05:32:11 9650 1528
x264 Star.Trek.Discovery.S02E14.WEBRip.x264-TBS[ettv]
555.40 MB 2019-04-19 03:06:18 8756 3306
x264 Star.Trek.Discovery.S02E11.WEBRip.x264-PBS[ettv]
278.22 MB 2019-03-29 00:17:29 8655 1789
x264 Star.Trek.Discovery.S02E06.WEBRip.x264-TBS[ettv]
389.66 MB 2019-02-22 03:49:42 8141 2521
x264 Star.Trek.Discovery.S02E05.WEBRip.x264-TBS[ettv]
389.05 MB 2019-02-15 03:27:21 7878 3017
x264 Star.Trek.Discovery.S02E08.WEBRip.x264-TBS[ettv]
288.71 MB 2019-03-08 03:30:26 7298 2133
x264 Star.Trek.Discovery.S02E07.WEBRip.x264-TBS[ettv]
258.31 MB 2019-03-01 03:28:08 7119 2125
x264 Star.Trek.Discovery.S02E13.WEBRip.x264-TBS[ettv]
294.95 MB 2019-04-12 03:47:52 6992 1975
x264 Star.Trek.Discovery.S02E03.WEBRip.x264-TBS[ettv]
295.39 MB 2019-02-01 03:34:54 6356 1456

Loading...


Trackers:
udp://tracker.leechers-paradise.org:6969/announce

This Torrent also has backup trackers
URLSeedersLeechersCompleted
http://tracker3.itzmx.com:6961/announce000
http://open.acgnxtracker.com:80/announce000
http://explodie.org:6969/announce000
http://0d.kebhana.mx:443/announce000

Star Trek Discovery S02E10 The Red Angel 1080p AMZN WEBrip x265 5.1 AAC D0ct0rLew[SEV]
Files
Star Trek Discovery S02E10 The Red Angel 1080p AMZN WEBrip x265 5.1 AAC D0ct0rLew[SEV].mkv (1.35 GB)


Comments:
No comments still posted
Loading...
Powered by TT | Page Generated In 0.321958 secs.
| RSS Feed | Feed Info