[Login] or [Signup]


Warning! Use a VPN When Downloading Torrents!
Your IP Address is .   Location is
Your Internet Provider is tracking your torrent activity!  Hide your IP ADDRESS with a VPN!
We strongly recommend using ExpressVPN to anonymize your torrenting. 30 Day Money Back Guarantee!
Try it Now!
First Cams

Xvid/x264



Non-English

Site Friends
      ETTV

      WorldWide Torrents

      Free Tutorials

      Aiosearch


Loading...

Alita Battle Angel 2019 720p HQ-TS x264 [MW]


Download torrent:    
Info Hash:  ac9c0b0bde7093a6c5485aad9ce8af701c931634
Category:  Movies  > Cam/TS
Torrent language:  English  
Seeds | Leech:  465 | 222
Complete:   3,574
Health:   
Total Size:  1.29 GB
Added By:        MovieFreak
Date Added:  22-03-2019 02:26:pm | Last Edit:  23-03-2019 06:36:am

IMDB
Alita: Battle Angel
Alita: Battle Angel Released 14 Feb 2019

Genre Action, Adventure, Romance, Sci-Fi, Thriller

Director Robert Rodriguez

Writer James Cameron (screenplay by), Laeta Kalogridis (screenplay by), Yukito Kishiro (based on the graphic novel series "Gunnm" by)

Actors Rosa Salazar, Christoph Waltz, Jennifer Connelly, Mahershala Ali

Plot A deactivated female cyborg is revived, but cannot remember anything of her past life and goes on a quest to find out who she is.

Link http://www.imdb.com/title/tt0437086

Last Updated 23-04-2019 22:09:00
7.6

Votes 78,815

Un système d'onglets en javascript
Description Trackers Files Comments Download




General
Format                                   : Matroska
Format version                           : Version 4
File size                                : 1.29 GiB
Duration                                 : 1 h 55 min
Overall bit rate                         : 1 595 kb/s

Video
ID                                       : 1
Format                                   : AVC
Format/Info                              : Advanced Video Codec
Format profile                           : [email protected]
Format settings                          : CABAC / 4 Ref Frames
Format settings, CABAC                   : Yes
Format settings, RefFrames               : 4 frames
Codec ID                                 : V_MPEG4/ISO/AVC
Duration                                 : 1 h 55 min
Bit rate                                 : 1 400 kb/s
Width                                    : 1 280 pixels
Height                                   : 534 pixels
Display aspect ratio                     : 2.40:1
Frame rate mode                          : Constant
Frame rate                               : 23.976 (23976/1000) FPS
Color space                              : YUV
Chroma subsampling                       : 4:2:0
Bit depth                                : 8 bits
Scan type                                : Progressive
Bits/(Pixel*Frame)                       : 0.085
Stream size                              : 1.13 GiB (88%)
Writing library                          : x264 core 157 r2935 545de2f

Audio
ID                                       : 2
Format                                   : AAC LC
Codec ID                                 : A_AAC-2
Duration                                 : 1 h 55 min
Bit rate                                 : 192 kb/s
Channel(s)                               : 2 channels
Channel layout                           : L R
Sampling rate                            : 48.0 kHz
Frame rate                               : 46.875 FPS (1024 SPF)
Compression mode                         : Lossy
Stream size                              : 160 MiB (12%)
Language                                 : English
Default                                  : Yes
Forced                                   : No


Click To View Image

https://pichub.site/image/wc8fZ
https://pichub.site/image/wcAhg
https://pichub.site/image/wcBoI
https://pichub.site/image/wcKWX
https://pichub.site/image/wcuUJ
https://pichub.site/image/wcmV8



Similar Torrents
Type Name Size Added S L
Cam/TS Alita Battle Angel 2019.720p PROPER HDTC-1XBET
2.43 GB 2019-02-24 11:19:56 4243 2652
Cam/TS Alita Battle Angel 2019 HDTC x264 AC3-ETRG
998.43 MB 2019-02-23 13:38:41 4186 2693
Cam/TS Alita Battle Angel 2019 HDCAM XViD AC3-ETRG
1.29 GB 2019-02-09 10:33:44 3685 3719
Cam/TS Alita Battle Angel 2019 720p HDTC x264 AC3-ETRG
1.04 GB 2019-02-25 09:34:04 2716 2813
Cam/TS Alita Battle Angel 2019 V2.HDTC x264 AC3-ETRG
943.59 MB 2019-02-24 19:08:00 2641 2050
Cam/TS Alita Battle Angel 2019 720p HDCAM-1XBET
2.42 GB 2019-02-08 17:31:55 2562 1940
Cam/TS Alita.Battle.Angel.2019.HDTS x264.AC3-ETRG
1.08 GB 2019-03-18 19:43:39 2001 1670
Cam/TS Alita Battle Angel 2019 720p HDCAM LATINO-1XBET
1.76 GB 2019-02-11 10:21:52 1740 1256
Cam/TS Alita Battle Angel 2019.HDCAM.V2.XViD.AC3-ETRG
1.33 GB 2019-02-20 12:35:31 1681 1389
Cam/TS Alita Battle Angel 2019 720p HDTC-1XBET
2.43 GB 2019-02-23 11:49:25 1424 592

Loading...


Trackers:
udp://tracker.coppersurfer.tk:6969/announce

Alita Battle Angel 2019 720p HQ-TS x264 [MW]
Files
Alita Battle Angel 2019 720p HQ-TS x264 [MW].mkv (1.29 GB)


Comments:
No comments still posted
Loading...
Powered by TT | Page Generated In 1.020048 secs.
| RSS Feed | Feed Info