Warning! Use a VPN When Downloading Torrents!
Your IP Address is .   Location is
Your Internet Provider is tracking your torrent activity!  Hide your IP ADDRESS with a VPN!
We strongly recommend using Trust.Zone VPN to anonymize your torrenting. It's FREE!
Get VPN Now for FREE!
First Cams

Xvid/x264



Non-English

Site Friends
      ETTV

      WorldWide Torrents

      Free Tutorials

      Aiosearch


Loading...

How to Train Your Dragon The Hidden World 2019 720p HQ-TS x264 [MW]


Download torrent:      
Info Hash:  ca5ae2181a5f51c01961261717eaad91c8d0ce5c
Category:  Movies  > Cam/TS
Torrent language:  English  
Seeds | Leech:  1,110 | 699
Complete:   3,455
Health:   
Total Size:  1.08 GB
Added By:        MovieFreak
Date Added:  22-03-2019 12:49:pm | Last Edit:  22-03-2019 11:42:pm

IMDB
How to Train Your Dragon: The Hidden World
How to Train Your Dragon: The Hidden World Released 22 Feb 2019

Genre Animation, Action, Adventure, Comedy, Family, Fantasy

Director Dean DeBlois

Writer Dean DeBlois, Cressida Cowell (based upon the "How to Train Your Dragon" book series by)

Actors Jay Baruchel, America Ferrera, F. Murray Abraham, Cate Blanchett

Plot When Hiccup discovers Toothless isn't the only Night Fury, he must seek "The Hidden World", a secret Dragon Utopia before a hired tyrant named Grimmel finds it first.

Link http://www.imdb.com/title/tt2386490

Last Updated 18-06-2019 07:59:58
7.6

Votes 58,684

Un système d'onglets en javascript
Description Trackers Files Comments Download




General
Format                                   : Matroska
Format version                           : Version 4
File size                                : 1.08 GiB
Duration                                 : 1 h 37 min
Overall bit rate                         : 1 590 kb/s

Video
ID                                       : 1
Format                                   : AVC
Format/Info                              : Advanced Video Codec
Format profile                           : [email protected]
Format settings                          : CABAC / 4 Ref Frames
Format settings, CABAC                   : Yes
Format settings, RefFrames               : 4 frames
Codec ID                                 : V_MPEG4/ISO/AVC
Duration                                 : 1 h 37 min
Bit rate                                 : 1 400 kb/s
Width                                    : 1 280 pixels
Height                                   : 720 pixels
Display aspect ratio                     : 16:9
Frame rate mode                          : Constant
Frame rate                               : 24.000 FPS
Color space                              : YUV
Chroma subsampling                       : 4:2:0
Bit depth                                : 8 bits
Scan type                                : Progressive
Bits/(Pixel*Frame)                       : 0.063
Stream size                              : 973 MiB (88%)
Writing library                          : x264 core 157 r2935 545de2f

Audio
ID                                       : 2
Format                                   : AAC LC
Codec ID                                 : A_AAC-2
Duration                                 : 1 h 37 min
Bit rate                                 : 192 kb/s
Channel(s)                               : 2 channels
Channel layout                           : L R
Sampling rate                            : 48.0 kHz
Frame rate                               : 46.875 FPS (1024 SPF)
Compression mode                         : Lossy
Stream size                              : 135 MiB (12%)
Language                                 : English
Default                                  : Yes
Forced                                   : No


Click To View Image

https://pichub.site/image/wcaZs
https://pichub.site/image/wcYNR
https://pichub.site/image/wcOOB
https://pichub.site/image/wcRBY
https://pichub.site/image/wcS66
https://pichub.site/image/wcEft



Similar Torrents
Type Name Size Added S L
Divx/Xvid 1.37 GB 2019-03-28 19:50:03 10352 6844
Cam/TS How.to.Train.Your.Dragon.The.Hidden.World.HC.HQ-TS...
2.22 GB 2019-03-10 23:48:20 5045 6550
Cam/TS How to Train Your Dragon 3 2019 720p HC NEW HDTC-1...
2.44 GB 2019-03-13 16:30:44 4493 4894
Cam/TS How.to.Train.Your.Dragon.The.Hidden.World.2019.HDT...
877.35 MB 2019-03-11 13:06:12 3373 2776
Cam/TS How to Train Your Dragon 3 2019 HDCAM XViD AC3-ETR...
1.17 GB 2019-01-14 00:13:01 3275 1959
Divx/Xvid How.to.Talk.to.Girls.at.Parties.2017.HDRip.XviD.AC...
1.38 GB 2018-05-23 11:19:03 2000 748
Divx/Xvid How.to.Train.Your.Dragon.The.Hidden.World.2019.HDT...
1.17 GB 2019-03-11 20:51:20 1721 1336
h.264/x264 How.to.Train.Your.Dragon.The.Hidden.World.2019.HDR...
1.47 GB 2019-03-28 20:58:21 1673 951
Dubs/Dual Audio 1.04 GB 2019-05-24 13:23:55 1470 871
h.264/x264 How to Train Your Dragon 3 2018 720p HC HDRip LATI...
2.14 GB 2019-03-10 23:04:29 1440 1759

Loading...


Trackers:
udp://tracker.coppersurfer.tk:6969/announce

How to Train Your Dragon The Hidden World 2019 720p HQ-TS x264 [MW]
Files
How to Train Your Dragon The Hidden World 2019 720p HQ-TS x264 [MW].mkv (1.08 GB)


Comments:
No comments still posted
Loading...
Powered by TT | Page Generated In 0.422043 secs.
| RSS Feed | Feed Info