[Login] or [Signup]


Warning! Use a VPN When Downloading Torrents!
Your IP Address is .   Location is
Your Internet Provider is tracking your torrent activity!  Hide your IP ADDRESS with a VPN!
We strongly recommend using ExpressVPN to anonymize your torrenting. 30 Day Money Back Guarantee!
Try it Now!
First Cams

Xvid/x264



Non-English

Site Friends
      ETTV

      WorldWide Torrents

      Free Tutorials

      Aiosearch


Loading...

Lord of War (2005) x 1600 (2160p) HDR 5.1 x265 10bit Phun Psyz


Download torrent:    
Info Hash:  abc9bec0d7ffdc9335ad61e79ad96599381c8085
Category:  Movies  > 4K
Torrent language:  English  
Seeds | Leech:  205 | 212
Complete:   535
Health:   
Total Size:  3.34 GB
Added By:        phunpsyz
Date Added:  22-03-2019 12:40:pm | Last Edit:  22-03-2019 11:48:pm

IMDB
Lord of War
Lord of War Released 16 Sep 2005

Genre Crime, Drama, Thriller

Director Andrew Niccol

Writer Andrew Niccol

Actors Nicolas Cage, Bridget Moynahan, Jared Leto, Shake Tukhmanyan

Plot An arms dealer confronts the morality of his work as he is being chased by an INTERPOL Agent.

Link http://www.imdb.com/title/tt0399295

Last Updated 23-04-2019 21:41:19
7.6

Votes 275,987

Un système d'onglets en javascript
Description Trackers Files Comments Download
www.imdb.com/title/tt0399295/

An arms dealer confronts the morality of his work as he is being chased by an INTERPOL Agent.

Source: FGT 4K HDR Remux







Format                      : Matroska
Format version              : Version 4
File size                   : 3.34 GiB
Duration                    : 2 h 1 min
Overall bit rate            : 3 931 kb/s
Writing application         : HandBrake 1.2.0 2018121700

Video
ID                          : 1
Format                      : HEVC
Format/Info                 : High Efficiency Video Coding
Format profile              : Main [email protected]@High
Codec ID                    : V_MPEGH/ISO/HEVC
Duration                    : 2 h 1 min
Bit rate                    : 3 533 kb/s
Width                       : 3 840 pixels
Height                      : 1 600 pixels
Display aspect ratio        : 2.40:1
Frame rate mode             : Constant
Frame rate                  : 23.976 (24000/1001) FPS
Color space                 : YUV
Chroma subsampling          : 4:2:0
Bit depth                   : 10 bits
Bits/(Pixel*Frame)          : 0.024
Stream size                 : 3.00 GiB (90%)
Writing library             : x265 2.9:[Windows][GCC 7.1.0][64 bit] 10bit
Color primaries             : BT.2020
Transfer characteristics    : PQ
Matrix coefficients         : BT.2020 non-constant

Audio
ID                          : 2
Format                      : AC-3
Format/Info                 : Audio Coding 3
Commercial name             : Dolby Digital
Codec ID                    : A_AC3
Duration                    : 2 h 1 min
Bit rate mode               : Constant
Bit rate                    : 320 kb/s
Channel(s)                  : 6 channels
Channel layout              : L R C LFE Ls Rs
Sampling rate               : 48.0 kHz
Frame rate                  : 31.250 FPS (1536 SPF)
Bit depth                   : 16 bits
Compression mode            : Lossy
Stream size                 : 279 MiB (8%)
Title                       : Surround
Language                    : English

Text
Language                    : English
Language                    : English
Language                    : English
Language                    : Spanish
Default                     : No
Forced                      : No


Similar Torrents
Type Name Size Added S L
Video Mother of 9 sons and husband to the school and the...
748.63 MB 2019-03-24 08:12:13 865 921
Video DBEB-090 humiliation after The Lord of brutality ...
2.76 GB 2019-02-19 04:26:46 625 829
HEVC/x265 Il Signore degli anelli - The Lord of The Rings Tr...
17.02 GB 2019-01-10 16:20:17 314 307
PC-RIP The Lord of the Rings The Battle for Middle Earth ...
8.97 GB 2018-05-26 01:10:29 139 69
HD Lord of War (2005) x 800 (1080p) 5.1 - 2.0 x264 Ph...
2.23 GB 2019-03-22 04:08:37 114 71
HD The Lord of the Rings Collection EXTENDED 1080p Bl...
15.30 GB 2018-06-07 08:50:39 112 294
h.264/x264 The Lord of the Rings Trilogy (2001-2003) EXTENDED...
5.48 GB 2018-06-03 13:07:42 20 24
HD The Lord of the Rings Trilogy EXTENDED 1080p BluRa...
18.06 GB 2019-04-23 12:25:32 5 185
PC-ISO The Lord of the Rings: War in the North (v.1.1) [R...
3.77 GB 2018-09-28 16:52:33 3 3
PC-ISO The Lord of the Rings: Middle-Earth II + Witch-Kin...
4.52 GB 2018-09-27 11:28:59 1 3

Loading...


Trackers:
udp://tracker.opentrackr.org:1337/announce

This Torrent also has backup trackers
URLSeedersLeechersCompleted
http://explodie.org:6969/announce000
http://open.acgtracker.com:1096/announce000

Lord of War (2005) x 1600 (2160p) HDR 5.1 x265 10bit Phun Psyz
Files
Lord of War (2005) x 1600 (2160p) HDR 5.1 x265 10bit Phun Psyz.mkv (3.34 GB)


Comments:
No comments still posted
Loading...
Powered by TT | Page Generated In 0.336191 secs.
| RSS Feed | Feed Info