[Login] or [Signup]


Warning! Use a VPN When Downloading Torrents!
Your IP Address is .   Location is
Your Internet Provider is tracking your torrent activity!  Hide your IP ADDRESS with a VPN!
We strongly recommend using ExpressVPN to anonymize your torrenting. 30 Day Money Back Guarantee!
Try it Now!
First Cams

Xvid/x264



Non-English

Site Friends
      ETTV

      WorldWide Torrents

      Free Tutorials

      Aiosearch


Loading...

The Lego Movie 2 The Second Part 2019 1080p WEBRip x264 [MW]


Download torrent:    
Info Hash:  c91bbc6d514906134b37f5398b8d68e6c5bd5d87
Category:  Movies  > HD
Torrent language:  English  
Seeds | Leech:  247 | 70
Complete:   1,017
Health:   
Total Size:  1.65 GB
Added By:        MovieFreak
Date Added:  22-03-2019 09:35:am | Last Edit:  22-03-2019 07:30:pm

Un système d'onglets en javascript
Description Trackers Files Comments Download




General
Format                                   : Matroska
Format version                           : Version 4
File size                                : 1.65 GiB
Duration                                 : 1 h 45 min
Overall bit rate                         : 2 245 kb/s

Video
ID                                       : 1
Format                                   : AVC
Format/Info                              : Advanced Video Codec
Format profile                           : [email protected]
Format settings                          : CABAC / 4 Ref Frames
Format settings, CABAC                   : Yes
Format settings, RefFrames               : 4 frames
Codec ID                                 : V_MPEG4/ISO/AVC
Duration                                 : 1 h 45 min
Bit rate                                 : 2 000 kb/s
Width                                    : 1 920 pixels
Height                                   : 800 pixels
Display aspect ratio                     : 2.40:1
Frame rate mode                          : Constant
Frame rate                               : 29.970 (30000/1001) FPS
Color space                              : YUV
Chroma subsampling                       : 4:2:0
Bit depth                                : 8 bits
Scan type                                : Progressive
Bits/(Pixel*Frame)                       : 0.043
Stream size                              : 1.46 GiB (88%)
Writing library                          : x264 core 157 r2935 545de2f

Audio
ID                                       : 2
Format                                   : AAC LC
Codec ID                                 : A_AAC-2
Duration                                 : 1 h 45 min
Bit rate                                 : 256 kb/s
Channel(s)                               : 2 channels
Channel layout                           : L R
Sampling rate                            : 48.0 kHz
Frame rate                               : 46.875 FPS (1024 SPF)
Compression mode                         : Lossy
Stream size                              : 193 MiB (11%)
Language                                 : English
Default                                  : Yes
Forced                                   : No


Click To View Image

https://pichub.site/image/wVod0
https://pichub.site/image/wV23T
https://pichub.site/image/wVlIN
https://pichub.site/image/wV6AD
https://pichub.site/image/wVn4g
https://pichub.site/image/wVPlZ



Similar Torrents
Type Name Size Added S L
Divx/Xvid The Lego Movie 2 The Second Part.2019.HDRip.XviD.A...
1.21 GB 2019-03-09 14:02:21 3590 1928
Divx/Xvid The Lego Movie 2 The Second Part.2019.BRRip.XviD.A...
1.23 GB 2019-04-21 13:51:31 1938 502
h.264/x264 The Lego Movie 2 The Second Part.2019.HDRip.XviD.A...
1.21 GB 2019-03-09 03:22:22 1450 1014
Cam/TS The Lego Movie 2 2019 HDCAM XViD AC3-ETRG
1.19 GB 2019-02-11 12:58:02 1391 865
PC-ISO The LEGO Movie 2 Videogame-RELOADED
6.31 GB 2019-02-27 08:41:56 768 581
h.264/x264 The.Lego.Movie.2.The.Second.Part.2019.720p.HDRiP.x...
1.26 GB 2019-03-09 19:13:16 620 231
HD The Lego Movie 2 The Second Part.2019.1080p.WEB-DL...
3.66 GB 2019-04-16 03:36:24 548 538
Cam/TS The Lego Movie 2 2019 720p HDCAM-1XBET
2.44 GB 2019-02-11 06:06:18 413 239
Cam/TS The Lego Movie 2 (2019) 720p HDCAM X264-AC3-Will18...
730.70 MB 2019-02-11 06:24:27 338 180
h.264/x264 The.Lego.Movie.2.The.Second.Part.2019.HDRip.AC3.X2...
1.33 GB 2019-03-09 09:36:29 300 151

Loading...


Trackers:
udp://tracker.coppersurfer.tk:6969/announce

The Lego Movie 2 The Second Part 2019 1080p WEBRip x264 [MW]
Files
The Lego Movie 2 The Second Part 2019 1080p WEBRip x264 [MW].mkv (1.65 GB)


Comments:
No comments still posted
Loading...
Powered by TT | Page Generated In 0.118886 secs.
| RSS Feed | Feed Info