[Login] or [Signup]


Warning! Use a VPN When Downloading Torrents!
Your IP Address is .   Location is
Your Internet Provider is tracking your torrent activity!  Hide your IP ADDRESS with a VPN!
We strongly recommend using ExpressVPN to anonymize your torrenting. 30 Day Money Back Guarantee!
Try it Now!
First Cams

Xvid/x264



Non-English

Site Friends
      ETTV

      WorldWide Torrents

      Free Tutorials

      Aiosearch


Loading...

Impractical Jokers S07E06 Turning the Tables x 808 (1080p) x264 Phun Psyz


Download torrent:    
Info Hash:  880b30befaa94c3668bdf5d518b8594537c36950
Category:  TV  > HD
Torrent language:  English  
Seeds | Leech:  144 | 1
Complete:   278
Health:   
Total Size:  385.49 MB
Added By:        phunpsyz
Date Added:  21-03-2019 10:58:pm | Last Edit:  22-03-2019 12:17:pm

Un système d'onglets en javascript
Description Trackers Files Comments Download
www.imdb.com/title/tt8306166/?ref_=ttep_ep7

The guys take out the remote a controlled chairs for a spin, team up to work at a virtual reality gaming center, and attempt to blame strangers for unusual events.

Source: ViSUM (iTunes)







Format                      : MPEG-4
Format profile              : Base Media / Version 2
Codec ID                    : mp42 (isom/iso2/avc1/mp41)
File size                   : 385 MiB
Duration                    : 24 min 43 s
Overall bit rate mode       : Variable
Overall bit rate            : 2 179 kb/s
Writing application         : HandBrake 1.2.0 2018121700

Video
ID                          : 1
Format                      : AVC
Format/Info                 : Advanced Video Codec
Format profile              : [email protected]
Format settings             : CABAC / 1 Ref Frames
Format settings, CABAC      : Yes
Format settings, ReFrames   : 1 frame
Codec ID                    : avc1
Codec ID/Info               : Advanced Video Coding
Duration                    : 24 min 43 s
Bit rate                    : 2 012 kb/s
Width                       : 1 436 pixels
Height                      : 808 pixels
Display aspect ratio        : 16:9
Frame rate mode             : Constant
Frame rate                  : 29.970 (30000/1001) FPS
Color space                 : YUV
Chroma subsampling          : 4:2:0
Bit depth                   : 8 bits
Scan type                   : Progressive
Bits/(Pixel*Frame)          : 0.058
Stream size                 : 356 MiB (92%)
Writing library             : x264 core 157 r2935 545de2f

Audio
ID                          : 2
Format                      : AAC LC
Format/Info                 : Advanced Audio Codec Low Complexity
Codec ID                    : mp4a-40-2
Duration                    : 24 min 43 s
Bit rate mode               : Constant
Bit rate                    : 160 kb/s
Channel(s)                  : 2 channels
Channel layout              : L R
Sampling rate               : 48.0 kHz
Frame rate                  : 46.875 FPS (1024 SPF)
Compression mode            : Lossy
Stream size                 : 28.3 MiB (7%)
Title                       : Stereo
Language                    : English

Text
Language                    : English
Default                     : Yes
Forced                      : No


Similar Torrents
Type Name Size Added S L
Ebooks The Impractical Cabinetmaker
39.25 MB 2018-08-17 02:56:41 901 39
x264 Impractical.Jokers.S07E15.WEB.x264-TBS[ettv]
454.82 MB 2018-09-14 13:28:24 501 42
x264 Impractical.Jokers.S07E13.WEB.x264-TBS[ettv]
454.97 MB 2018-08-24 11:00:47 461 12
x264 Impractical.Jokers.S07E12.WEB.x264-TBS[ettv]
454.95 MB 2018-08-17 12:04:53 251 16
x264 Impractical.Jokers.S07E10.WEB.x264-TBS[ettv]
412.53 MB 2018-08-03 10:00:21 242 28
x264 Impractical.Jokers.S07E25.WEB.x264-TBS[ettv]
454.32 MB 2018-11-30 11:51:26 192 31
HD Impractical Jokers S07E02 Guilty as Charged x 810 ...
332.29 MB 2019-03-10 00:44:26 166 10
HD Impractical Jokers S07E04 Stripteased x 810 (1080p...
327.71 MB 2019-03-15 15:11:03 166 2
HD Impractical Jokers S07E03 No Good Deed x 810 (1080...
329.94 MB 2019-03-12 03:45:01 142 18
HD Impractical Jokers S07E08 No Child Left Behind x 8...
376.83 MB 2019-04-04 04:16:30 135 26

Loading...


Trackers:
udp://tracker.opentrackr.org:1337/announce

This Torrent also has backup trackers
URLSeedersLeechersCompleted
http://explodie.org:6969/announce000
http://open.acgtracker.com:1096/announce000

Impractical Jokers S07E06 Turning the Tables x 808 (1080p) x264 Phun Psyz
Files
Impractical Jokers S07E06 Turning the Tables x 808 (1080p) x264 Phun Psyz.mp4 (385.49 MB)


Comments:
No comments still posted
Loading...
Powered by TT | Page Generated In 0.117668 secs.
| RSS Feed | Feed Info