[Login] or [Signup]


Warning! Use a VPN When Downloading Torrents!
Your IP Address is .   Location is
Your Internet Provider is tracking your torrent activity!  Hide your IP ADDRESS with a VPN!
We strongly recommend using ExpressVPN to anonymize your torrenting. 30 Day Money Back Guarantee!
Try it Now!
First Cams

Xvid/x264



Non-English

Site Friends
      ETTV

      WorldWide Torrents

      Free Tutorials

      Aiosearch


Loading...

Deadly.Class.S01.Season.1.COMPLETE.720p.AMZN.x265.6CH.ReEnc-LUMI


Download torrent:    
Info Hash:  071327fac87ecce651685b273bf9161eaa9b0878
Category:  Movies  > HEVC/x265
Torrent language:  English  
Seeds | Leech:  110 | 103
Complete:   236
Health:   
Total Size:  2.23 GB
Added By:        lumi265
Date Added:  21-03-2019 10:28:pm | Last Edit:  22-03-2019 12:30:pm

Un système d'onglets en javascript
Description Trackers Files Comments Download
Please donate:
[code]
Bitcoin: 3HKCmf9e2oTr9KvJcXCDRaCjg1AxioL1UE
BCH: qqgvak0004cj9g9p2fqcz0s8q8384s8mecq88swgpe
ETH: 0x865fEC58a2d98f44d7253A1d5cE18b40fb124462
LTC: MLogKCRBvwoeXe5z7wej8V93sQi1ue9uTr
ZEC: t1K9grYE1ZkQF9ftmowo3ejJZadpxKg9zn9
[/code]

SEED TILL YOU BLEED

If you like the upload, please leave a comment, and any other feedback / requests are most welcome!
x265 encodes of the same size have much more detail than x264, try it for yourself once!
Please help me by seeding for a slong as possible, it doesn't hurt you and helps others download!

Screens:




Source: Deadly.Class.S01.720p.AMZN.WEBRip.DDP5.1.x264-NTG (Thanks!)

Info: (for episode 1, others similar)

[code]
Video
ID                                       : 1
Format                                   : HEVC
Format/Info                              : High Efficiency Video Coding
Format profile                           : [email protected]@Main
Codec ID                                 : hvc1
Codec ID/Info                            : High Efficiency Video Coding
Duration                                 : 53 min 25 s
Bit rate                                 : 522 kb/s
Width                                    : 1 280 pixels
Height                                   : 532 pixels (why is it not 720p? because this Was not shot in 16:9 aspect ratio, and I have cropped the black bars)
Display aspect ratio                     : 2.40:1
Frame rate mode                          : Variable
Frame rate                               : 23.976 (24000/1001) FPS
Minimum frame rate                       : 23.974 FPS
Maximum frame rate                       : 23.981 FPS
Color space                              : YUV
Chroma subsampling                       : 4:2:0
Bit depth                                : 8 bits
Bits/(Pixel*Frame)                       : 0.032
Stream size                              : 199 MiB (72%)
Writing library                          : x265 2.9:[Windows][GCC 8.2.0][64 bit] 8bit+10bit+12bit

Audio
ID                                       : 2
Format                                   : AAC LC
Format/Info                              : Advanced Audio Codec Low Complexity
Codec ID                                 : mp4a-40-2
Duration                                 : 53 min 25 s
Bit rate mode                            : Constant
Bit rate                                 : 192 kb/s
Channel(s)                               : 6 channels
Channel layout                           : C L R Ls Rs LFE
Sampling rate                            : 48.0 kHz
Frame rate                               : 46.875 FPS (1024 SPF)
Compression mode                         : Lossy
Stream size                              : 73.5 MiB (27%)
Title                                    : Surround
Language                                 : English

Text
ID                                       : 3
Format                                   : Timed Text
Muxing mode                              : sbtl
Codec ID                                 : tx3g
Duration                                 : 53 min 18 s
Bit rate mode                            : Variable
Bit rate                                 : 73 b/s
Stream size                              : 28.4 KiB (0%)
Language                                 : English
Default                                  : Yes
[/code]



Similar Torrents
Type Name Size Added S L
x264 Deadly.Class.S01E09.HDTV.x264-KILLERS[ettv]
184.56 MB 2019-03-14 05:22:42 2134 432
x264 Deadly.Class.S01E05.WEBRip.x264-TBS[ettv]
225.94 MB 2019-02-14 06:39:21 1924 464
x264 Deadly.Class.S01E02.HDTV.x264-BATV[ettv]
189.09 MB 2019-01-24 06:06:25 1528 242
x264 Deadly.Class.S01E07.WEBRip.x264-PBS[ettv]
317.42 MB 2019-02-28 12:56:05 1281 274
x264 Deadly.Class.S01E04.WEBRip.x264-TBS[ettv]
171.28 MB 2019-02-07 09:07:21 1157 229
x264 Deadly.Class.S01E03.WEBRip.x264-TBS[ettv]
188.86 MB 2019-01-31 07:19:00 1128 193
x264 Deadly.Class.S01E06.HDTV.x264-KILLERS[ettv]
165.48 MB 2019-02-21 06:35:49 1125 164
HD Deadly.Class.S01E09.720p.HDTV.x264-KILLERS[ettv]
602.96 MB 2019-03-14 05:18:49 1057 195
x264 Deadly.Class.S01E08.WEBRip.x264-PBS[ettv]
282.72 MB 2019-03-07 13:02:17 952 157
HD Deadly.Class.S01E08.The.Clampdown.720p.AMZN.WEB-DL...
738.97 MB 2019-03-07 12:40:27 819 147

Loading...


Trackers:
udp://tracker.coppersurfer.tk:6969/announce

Deadly.Class.S01.Season.1.COMPLETE.720p.AMZN.x265.6CH.ReEnc-LUMI
Files
Deadly.Class.S01E01.720p.AMZN.x265.6CH.ReEnc-LUMI.mp4 (275.32 MB)
Deadly.Class.S01E02.720p.AMZN.x265.6CH.ReEnc-LUMI.mp4 (218.62 MB)
Deadly.Class.S01E03.720p.AMZN.x265.6CH.ReEnc-LUMI.mp4 (225.54 MB)
Deadly.Class.S01E04.720p.AMZN.x265.6CH.ReEnc-LUMI.mp4 (201.58 MB)
Deadly.Class.S01E05.720p.AMZN.x265.6CH.ReEnc-LUMI.mp4 (270.43 MB)
Deadly.Class.S01E06.720p.AMZN.x265.6CH.ReEnc-LUMI.mp4 (207.97 MB)
Deadly.Class.S01E07.720p.AMZN.x265.6CH.ReEnc-LUMI.mp4 (234.50 MB)
Deadly.Class.S01E08.720p.AMZN.x265.6CH.ReEnc-LUMI.mp4 (197.22 MB)
Deadly.Class.S01E09.720p.AMZN.x265.6CH.ReEnc-LUMI.mp4 (224.12 MB)
Deadly.Class.S01E10.720p.AMZN.x265.6CH.ReEnc-LUMI.mp4 (222.02 MB)
info.txt (3.74 kB)
Please_Support.txt (304.00 B)
Screens/a00003.png (621.84 kB)
Screens/a00004.png (397.00 kB)
Screens/a00005.png (428.65 kB)
Screens/a00006.png (388.09 kB)
Screens/a00007.png (338.90 kB)
Taking_Requests.txt (137.00 B)


Comments:
No comments still posted
Loading...
Powered by TT | Page Generated In 0.951775 secs.
| RSS Feed | Feed Info