[Login] or [Signup]


Warning! Use a VPN When Downloading Torrents!
Your IP Address is .   Location is
Your Internet Provider is tracking your torrent activity!  Hide your IP ADDRESS with a VPN!
We strongly recommend using ExpressVPN to anonymize your torrenting. 30 Day Money Back Guarantee!
Try it Now!
First Cams

Xvid/x264



Non-English

Site Friends
      ETTV

      WorldWide Torrents

      Free Tutorials

      Aiosearch


Loading...

Brotherhood Of Blades Ii 2017 x264 720p Esub BluRay Dual Audio Hindi Chinese GOPISAHI


Download torrent:    
Info Hash:  afec7abe79c60037dd73d743407584568269afce
Category:  Movies  > Dubs/Dual Audio
Torrent language:  Hindi  
Seeds | Leech:  463 | 108
Complete:   415
Health:   
Total Size:  767.33 MB
Added By:        GOPISAHI
Date Added:  21-03-2019 04:34:pm | Last Edit:  22-03-2019 03:08:am

IMDB
Brotherhood of Blades II: The Infernal Battlefield
Brotherhood of Blades II: The Infernal Battlefield Released 01 Dec 2017

Genre Action, Drama, History

Director Yang Lu

Writer Shu Chen, Yang Lu, Yang Yu

Actors Chen Chang, Mi Yang, Yi Zhang, Shih-Chieh King

Plot In the Ming dynasty of China, Shen Lian (starring Chang Chen), a secret police of corrupt government, is trapped by the conspiracy on a mission. To prove the innocence, he seeks the truth with a girl called Bei Zhai (starring Yang Mi).

Link http://www.imdb.com/title/tt7055592

Last Updated 23-04-2019 22:01:16
6.7

Votes 1,214

Un système d'onglets en javascript
Description Trackers Files Comments Download
https://www.gopisahi.pw/



Brotherhood Of Blades Ii 2017 x264 720p Esub BluRay Dual Audio Hindi Chinese GOPISAHI

Format                         : Matroska
Format version                 : Version 4 / Version 2
File size                      : 767 MiB
Duration                       : 2 h 0 min
Overall bit rate               : 894 kb/s
Movie name                     : Brotherhood Of Blades II The Infernal Battlefield 2017 GOPISAHI

Video
ID                             : 1
Format                         : AVC
Format/Info                    : Advanced Video Codec
Format profile                 : [email protected]
Format settings                : CABAC / 16 Ref Frames
Format settings, CABAC         : Yes
Format settings, ReFrames      : 16 frames
Codec ID                       : V_MPEG4/ISO/AVC
Duration                       : 1 h 59 min
Bit rate                       : 699 kb/s
Width                          : 1 280 pixels
Height                         : 536 pixels
Display aspect ratio           : 2.40:1
Frame rate mode                : Constant
Frame rate                     : 24.000 FPS
Color space                    : YUV
Chroma subsampling             : 4:2:0
Bit depth                      : 8 bits
Scan type                      : Progressive
Bits/(Pixel*Frame)             : 0.042
Stream size                    : 600 MiB (78%)
Title                          : GOPISAHI
Writing library                : x264 core 157 r2935 545de2f

Audio #1
ID                             : 2
Format                         : AAC
Format/Info                    : Advanced Audio Codec
Format profile                 : LC
Codec ID                       : A_AAC-2
Duration                       : 2 h 0 min
Bit rate                       : 96.0 kb/s
Channel(s)                     : 2 channels
Channel positions              : Front: L R
Sampling rate                  : 48.0 kHz
Frame rate                     : 46.875 FPS (1024 SPF)
Compression mode               : Lossy
Delay relative to video        : -21 ms
Stream size                    : 82.5 MiB (11%)
Title                          : GOPISAHI
Language                       : Hindi
Default                        : Yes
Forced                         : No

Audio #2
ID                             : 3
Format                         : AAC
Format/Info                    : Advanced Audio Codec
Format profile                 : LC
Codec ID                       : A_AAC-2
Duration                       : 2 h 0 min
Bit rate                       : 96.0 kb/s
Channel(s)                     : 2 channels
Channel positions              : Front: L R
Sampling rate                  : 48.0 kHz
Frame rate                     : 46.875 FPS (1024 SPF)
Compression mode               : Lossy
Delay relative to video        : -21 ms
Stream size                    : 82.6 MiB (11%)
Title                          : GOPISAHI
Language                       : Chinese
Default                        : No
Forced                         : No

Text
ID                             : 4
Format                         : UTF-8
Codec ID                       : S_TEXT/UTF8
Codec ID/Info                  : UTF-8 Plain Text
Duration                       : 1 h 58 min
Bit rate                       : 32 b/s
Count of elements              : 1134
Stream size                    : 28.2 KiB (0%)
Title                          : GOPISAHI
Language                       : English
Default                        : Yes
Forced                         : No







Similar Torrents
Type Name Size Added S L
HD Brotherhood Of Blades II (2017) 720p Hindi Dubbed ...
887.33 MB 2019-03-23 13:34:48 275 207
h.264/x264 Brotherhood.Of.Blades.II.The.Infernal.Battlefield....
827.63 MB 2018-10-20 18:53:07 140 31
Ebooks Dr. Stanley Monteith - Brotherhood of Darkness (20...
798.08 kB 2018-08-18 06:19:46 133 7
h.264/x264 Brotherhood of Darkness - The True Story Behind th...
278.04 MB 2018-08-18 06:19:19 127 39
Audio [indie-rock, psychedelic rock] (2018) Jeff the Bro...
287.54 MB 2018-10-14 23:55:55 76 32
Audio [alternative folk, chamber pop] (2019) Susanna &am...
208.74 MB 2019-03-12 21:23:51 72 19
Audio Brotherhood Of Man - Greatest Hits - 1992 (2014) [...
138.76 MB 2018-05-24 09:50:06 50 18
PC-ISO Fallout Tactics: Brotherhood of Steel-GOG
1.70 GB 2019-04-19 07:53:57 47 11
Other The Higherside Chats Plus - Jay Weidner - Archon C...
93.46 MB 2018-07-12 02:33:57 38 6
Video Brotherhood Of Man - Greatest Hits [2004] DVD5
3.30 GB 2018-08-17 08:47:56 20 18

Loading...


Trackers:
udp://tracker.coppersurfer.tk:6969/announce

This Torrent also has backup trackers
URLSeedersLeechersCompleted
http://tracker.internetwarriors.net:1337/announce000
http://tracker3.itzmx.com:6961/announce000
http://tracker1.itzmx.com:8080/announce000

Brotherhood Of Blades Ii 2017 x264 720p Esub BluRay Dual Audio Hindi Chinese GOPISAHI
Files
Brotherhood Of Blades Ii 2017 x264 720p Esub BluRay Dual Audio Hindi Chinese GOPISAHI.mkv (767.33 MB)


Comments:
No comments still posted
Loading...
Powered by TT | Page Generated In 0.852518 secs.
| RSS Feed | Feed Info