[Login] or [Signup]


Warning! Use a VPN When Downloading Torrents!
Your IP Address is .   Location is
Your Internet Provider is tracking your torrent activity!  Hide your IP ADDRESS with a VPN!
We strongly recommend using Trust.Zone VPN to anonymize your torrenting. It's FREE!
Get VPN Now for FREE!
First Cams

Xvid/x264



Non-English

Site Friends
      ETTV

      WorldWide Torrents

      Free Tutorials

      Aiosearch


Loading...

Banarasi Babu (1997) Hindi - 720p WEB-DL - x264 - AC3 -Sun George (Requested)


Complete Name :Banarasi Babu (1997) Hindi - 720p WEB-DL - x264 - AC3 -Sun George (Requested)
Download torrent:    Banarasi Babu (1997) Hindi - 720p WEB-DL - x264 - AC3 -Sun George (Requested).torrent
Info Hash:15a733d37f71c58214f948488cf7719fcd0180be
Category:Movies  > HD
Torrent language:Hindi  
Seeds | Leech:694 | 745
Complete: 983
Health:
Total Size:1.47 GB
Added By:      sungeorge
Date Added:14-03-2019 02:48:pm | Last Edit:  15-03-2019 09:31:am

 

IMDB
Banarasi Babu
Banarasi Babu Released N/A

Genre Comedy

Director David Dhawan

Writer N/A

Actors Govinda, Ramya Krishnan, Kader Khan, Shakti Kapoor

Plot Wealthy business, Chaubey, his wife, Lily, and daughter, Madhubala, return from Britain in order to visit India and find a suitable groom for Madhubala. They are met at the airport by ...

Link http://www.imdb.com/title/tt0118680

Last Updated 19-03-2019 07:51:32
4.4

Votes 150

Main Technical Comments
Banarasi Babu (1997) Hindi - 720p WEB-DL - x264 - AC3 -Sun George (Requested)





https://www.imdb.com/title/tt0118680/










===================================================================

Source : DTOne (Thanks)

General
Format                                   : Matroska
Format version                           : Version 4
File size                                : 1.44 GiB
Duration                                 : 1 h 59 min
Overall bit rate                         : 1 731 kb/s
Movie name  : Banarasi Babu (1997) Hindi - 720p WEB-DL - x264 - AC3 -Sun George (Requested)

===================================================================

Video
ID                                       : 1
Format                                   : AVC
Format/Info                              : Advanced Video Codec
Format profile                           : [email protected]
Format settings                          : CABAC / 5 Ref Frames
Format settings, CABAC                   : Yes
Format settings, RefFrames               : 5 frames
Codec ID                                 : V_MPEG4/ISO/AVC
Duration                                 : 1 h 59 min
Bit rate                                 : 1 500 kb/s
Width                                    : 1 280 pixels
Height                                   : 720 pixels
Display aspect ratio                     : 16:9
Frame rate mode                          : Constant
Frame rate                               : 25.000 FPS
Color space                              : YUV
Chroma subsampling                       : 4:2:0
Bit depth                                : 8 bits
Scan type                                : Progressive
Bits/(Pixel*Frame)                       : 0.065
Stream size                              : 1.25 GiB (87%)
Title                                    : Sun George

===================================================================

Audio
ID                                       : 2
Format                                   : AC-3
Format/Info                              : Audio Coding 3
Commercial name                          : Dolby Digital
Codec ID                                 : A_AC3
Duration                                 : 1 h 59 min
Bit rate mode                            : Constant
Bit rate                                 : 224 kb/s
Channel(s)                               : 2 channels
Channel layout                           : L R
Sampling rate                            : 44.1 kHz
Frame rate                               : 28.711 FPS (1536 SPF)
Bit depth                                : 16 bits
Compression mode                         : Lossy
Stream size                              : 191 MiB (13%)
Title                                    : Sun George
Language                                 : Hindi
Service kind                             : Complete Main
Default                                  : Yes
Forced                                   : No












........................................................................


Loading...


Trackers:
udp://tracker.pirateparty.gr:6969/announce

This Torrent also has backup trackers
URLSeedersLeechersCompleted
http://tracker.torrentyorg.pl:80/announce000
https://tracker.fastdownload.xyz:443/announce000
http://vps02.net.orel.ru:80/announce000

Banarasi Babu (1997) Hindi - 720p WEB-DL - x264 - AC3 -Sun George (Requested)
Files
Banarasi Babu (1997) Hindi - 720p WEB-DL - x264 - AC3 -Sun George (Requested).mkv --- 1.44 GB
Sample Banarasi Babu (1997) Hindi - 720p WEB-DL - x264 - AC3 -Sun George (Requested).mkv --- 25.86 MB


Comments:
No comments still posted
Loading...
Powered by TT | Page Generated In 0.624282 secs.
| RSS Feed | Feed Info