[Login] or [Signup]


Warning! Use a VPN When Downloading Torrents!
Your IP Address is .   Location is
Your Internet Provider is tracking your torrent activity!  Hide your IP ADDRESS with a VPN!
We strongly recommend using Trust.Zone VPN to anonymize your torrenting. It's FREE!
Get VPN Now for FREE!
First Cams

Xvid/x264



Non-English

Site Friends
      ETTV

      WorldWide Torrents

      Free Tutorials

      Aiosearch


Loading...

Kadvi Hawa aka Dark Wind (2017) Hindi - 720p WEB-DL - x264 - AC3 - ESubs -Sun George (Requested)


Complete Name :Kadvi Hawa aka Dark Wind (2017) Hindi - 720p WEB-DL - x264 - AC3 - ESubs -Sun George (Requested)
Download torrent:    Kadvi Hawa aka Dark Wind (2017) Hindi - 720p WEB-DL - x264 - AC3 - ESubs -Sun George (Requested).torrent
Info Hash:e25d4416a825ee585f2fe2abc9c91bf79b423d22
Category:Movies  > HD
Torrent language:Hindi  
Seeds | Leech:347 | 629
Complete: 483
Health:
Total Size:1.46 GB
Added By:      sungeorge
Date Added:14-03-2019 02:36:pm | Last Edit:  15-03-2019 09:33:am

 

IMDB
Dark wind
Dark wind Released N/A

Genre Drama

Director Nila Madhab Panda

Writer Nitin Dixit

Actors N/A

Plot A blind old man and a young bank loan recovery agent, ironically both coming from two extreme weather conditions having zero contribution to the global climate change, fight for their ...

Link https://www.imdb.com/title/tt6143422/

Last Updated 19-03-2019 16:48:21

Main Technical Comments
Kadvi Hawa aka Dark Wind (2017) Hindi - 720p WEB-DL - x264 - AC3 - ESubs -Sun George (Requested)





https://www.imdb.com/title/tt6143422/










===================================================================

Source : DTOne (Thanks)

General
Format                                   : Matroska
Format version                           : Version 4
File size                                : 1.43 GiB
Duration                                 : 1 h 34 min
Overall bit rate                         : 2 171 kb/s
Movie name : Kadvi Hawa aka Dark Wind (2017) Hindi - 720p WEB-DL - x264 - AC3 - ESubs -Sun George (Requested)

===================================================================

Video
ID                                       : 1
Format                                   : AVC
Format/Info                              : Advanced Video Codec
Format profile                           : [email protected]
Format settings                          : CABAC / 5 Ref Frames
Format settings, CABAC                   : Yes
Format settings, RefFrames               : 5 frames
Codec ID                                 : V_MPEG4/ISO/AVC
Duration                                 : 1 h 34 min
Bit rate                                 : 2 000 kb/s
Width                                    : 1 280 pixels
Height                                   : 720 pixels
Display aspect ratio                     : 16:9
Frame rate mode                          : Constant
Frame rate                               : 25.000 FPS
Color space                              : YUV
Chroma subsampling                       : 4:2:0
Bit depth                                : 8 bits
Scan type                                : Progressive
Bits/(Pixel*Frame)                       : 0.087
Stream size                              : 1.30 GiB (91%)
Title                                    : Sun George

===================================================================

Audio
ID                                       : 2
Format                                   : AC-3
Format/Info                              : Audio Coding 3
Commercial name                          : Dolby Digital
Codec ID                                 : A_AC3
Duration                                 : 1 h 34 min
Bit rate mode                            : Constant
Bit rate                                 : 192 kb/s
Channel(s)                               : 2 channels
Channel layout                           : L R
Sampling rate                            : 48.0 kHz
Frame rate                               : 31.250 FPS (1536 SPF)
Bit depth                                : 16 bits
Compression mode                         : Lossy
Stream size                              : 130 MiB (9%)
Title                                    : Sun George
Language                                 : Hindi
Service kind                             : Complete Main
Default                                  : Yes
Forced                                   : No

Text
ID                                       : 3
Format                                   : UTF-8
Codec ID                                 : S_TEXT/UTF8
Codec ID/Info                            : UTF-8 Plain Text
Duration                                 : 1 h 26 min
Bit rate                                 : 41 b/s
Count of elements                        : 878
Stream size                              : 26.5 KiB (0%)
Title                                    : Sun George
Language                                 : English
Default                                  : Yes
Forced                                   : Yes













........................................................................


Loading...


Trackers:
udp://tracker.pirateparty.gr:6969/announce

This Torrent also has backup trackers
URLSeedersLeechersCompleted
http://tracker.torrentyorg.pl:80/announce000
https://tracker.fastdownload.xyz:443/announce000
http://vps02.net.orel.ru:80/announce000

Kadvi Hawa aka Dark Wind (2017) Hindi - 720p WEB-DL - x264 - AC3 - ESubs -Sun George (Requested)
Files
Kadvi Hawa aka Dark Wind (2017) Hindi - 720p WEB-DL - x264 - AC3 - ESubs -Sun George (Requested).mkv --- 1.43 GB
Sample Kadvi Hawa aka Dark Wind (2017) Hindi - 720p WEB-DL - x264 - AC3 - ESubs -Sun George (Requested).mkv --- 26.30 MB


Similar Torrents
Type Name Size Added S L
Non-English Kadvi Hawa 2017 WebRip Hindi 720p x264 AAC ESub - ...
852.31 MB 2019-02-11 12:24:19 1880 1506
HD Kadvi Hawa (2017) Hindi 720p HDRip x264 AAC ESubs ...
735.48 MB 2019-02-11 11:37:42 627 248

Comments:
No comments still posted
Loading...
Powered by TT | Page Generated In 0.600253 secs.
| RSS Feed | Feed Info