[Login] or [Signup]


Warning! Use a VPN When Downloading Torrents!
Your IP Address is .   Location is
Your Internet Provider is tracking your torrent activity!  Hide your IP ADDRESS with a VPN!
We strongly recommend using Trust.Zone VPN to anonymize your torrenting. It's FREE!
Get VPN Now for FREE!
First Cams

Xvid/x264



Non-English

Site Friends
      ETTV

      WorldWide Torrents

      Free Tutorials

      Aiosearch


Loading...

Gabriel Iglesias Aloha Fluffy (2013) 1080p 5.1 - 2.0 x264 Phun Psyz


Complete Name :Gabriel Iglesias Aloha Fluffy (2013) 1080p 5.1 - 2.0 x264 Phun Psyz
Download torrent:    Gabriel Iglesias Aloha Fluffy (2013) 1080p 5.1 - 2.0 x264 Phun Psyz.torrent
Info Hash:9fab40a61db7b5bc53abef8eb5951655b4a5b9f7
Category:Movies  > HD
Torrent language:English  
Seeds | Leech:82 | 13
Complete: 139
Health:
Total Size:1.87 GB
Added By:      phunpsyz
Date Added:14-03-2019 03:42:am | Last Edit:  14-03-2019 03:02:pm

 

IMDB
Gabriel Iglesias: Aloha Fluffy
Gabriel Iglesias: Aloha Fluffy Released 07 Apr 2013

Genre Documentary, Comedy

Director N/A

Writer N/A

Actors Gabriel Iglesias

Plot In front of an adoring crowd in Honolulu, comedian Gabriel Iglesias relates tales from his childhood and career, and even uses some local slang.

Link http://www.imdb.com/title/tt2828960

Last Updated 19-03-2019 17:32:30
8.1

Votes 1,320

Main Technical Comments
www.imdb.com/title/tt2828960

In front of an adoring crowd in Honolulu, comedian Gabriel Iglesias relates tales from his childhood and career, and even uses some local slang.

Source: SADPANDA (BR)







Format                      : MPEG-4
Format profile              : Base Media / Version 2
Codec ID                    : mp42 (isom/iso2/avc1/mp41)
File size                   : 1.87 GiB
Duration                    : 1 h 33 min
Overall bit rate            : 2 850 kb/s
Writing application         : HandBrake 1.2.0 2018121700

Video
ID                          : 1
Format                      : AVC
Format/Info                 : Advanced Video Codec
Format profile              : [email protected]
Format settings             : CABAC / 1 Ref Frames
Format settings, CABAC      : Yes
Format settings, ReFrames   : 1 frame
Codec ID                    : avc1
Codec ID/Info               : Advanced Video Coding
Duration                    : 1 h 33 min
Bit rate                    : 2 360 kb/s
Width                       : 1 920 pixels
Height                      : 1 080 pixels
Display aspect ratio        : 16:9
Frame rate                  : 29.970 (29970/1000) FPS
Color space                 : YUV
Chroma subsampling          : 4:2:0
Bit depth                   : 8 bits
Scan type                   : Progressive
Bits/(Pixel*Frame)          : 0.038
Stream size                 : 1.55 GiB (83%)
Writing library             : x264 core 157 r2935 545de2f

Audio #1
ID                          : 2
Format                      : AC-3
Format/Info                 : Audio Coding 3
Commercial name             : Dolby Digital
Codec ID                    : ac-3
Duration                    : 1 h 33 min
Bit rate mode               : Constant
Bit rate                    : 320 kb/s
Channel(s)                  : 6 channels
Channel layout              : L R C LFE Ls Rs
Sampling rate               : 48.0 kHz
Frame rate                  : 31.250 FPS (1536 SPF)
Bit depth                   : 16 bits
Compression mode            : Lossy
Stream size                 : 215 MiB (11%)
Title                       : Surround
Language                    : English

Audio #2
ID                          : 3
Format                      : AAC LC
Format/Info                 : Advanced Audio Codec Low Complexity
Codec ID                    : mp4a-40-2
Duration                    : 1 h 33 min
Bit rate mode               : Constant
Bit rate                    : 161 kb/s
Channel(s)                  : 2 channels
Channel layout              : L R
Sampling rate               : 48.0 kHz
Frame rate                  : 46.875 FPS (1024 SPF)
Compression mode            : Lossy
Stream size                 : 108 MiB (6%)
Title                       : Stereo
Language                    : English
........................................................................


Loading...


Trackers:
udp://tracker.opentrackr.org:1337/announce

This Torrent also has backup trackers
URLSeedersLeechersCompleted
http://explodie.org:6969/announce000
http://open.acgtracker.com:1096/announce000

Gabriel Iglesias Aloha Fluffy (2013) 1080p 5.1 - 2.0 x264 Phun Psyz
Files
Gabriel Iglesias Aloha Fluffy (2013) 1080p 5.1 - 2.0 x264 Phun Psyz.mp4 --- 1.87 GB


Similar Torrents
Type Name Size Added S L
HD Video [Transsensual/HD]Gabriel Dalessandro, Domino Presl...
385.18 MB 2018-10-29 19:21:51 416 37
Video [SheMalePornStar]Mia And Gabriel Dalessandro-09-12...
534.70 MB 2018-12-09 16:18:12 214 115
Audio books Locke & Key - Joe Hill & Gabriel Rodriguez...
739.38 MB 2018-09-01 14:38:58 177 47
h.264/x264 Gabriel.and.the.Mountain.2017.LIMITED.DVDRip.x264-...
946.97 MB 2019-02-24 23:00:18 94 100
Video Peter Gabriel – New Blood - Live In London (2011...
86.26 GB 2018-09-18 17:38:49 17 147

Comments:
No comments still posted
Loading...
Powered by TT | Page Generated In 0.284617 secs.
| RSS Feed | Feed Info