[Login] or [Signup]

First Cams

Xvid/x264



Non-English

Loading...

[Prof] Overlord S1 (1080p x265 HEVC 10bit AAC 5.1 Eng Dub)


Complete Name :[Prof] Overlord S1 (1080p x265 HEVC 10bit AAC 5.1 Eng Dub)
Download torrent:    [Prof] Overlord S1 (1080p x265 HEVC 10bit AAC 5.1 Eng Dub).torrent
Info Hash:bdc3866588786053a5d3b466f9f7b2b240cbe7f1
Category:Anime  > All
Torrent language:English  
Seeds | Leech:22 | 5
Complete: 218
Health:
Total Size:4.81 GB
Downloaded:13 Times
Added By:      Prof
Date Added:22-06-2018 05:28:am | Last Edit:  13-09-2018 04:52:pm

 

Main Technical Comments
Format                                   : Matroska
Format version                           : Version 4 / Version 2
File size                                : 391 MiB
Duration                                 : 24 min 15 s
Overall bit rate                         : 2 257 kb/s
Movie name                               : Overlord Disc 1
Encoded date                             : UTC 2018-06-17 18:59:07
Writing application                      : mkvmerge v9.6.0 ('Slave To Your Mind') 64bit
Writing library                          : libebml v1.3.4 + libmatroska v1.4.5

Video
ID                                       : 1
Format                                   : HEVC
Format/Info                              : High Efficiency Video Coding
Format profile                           : Main [email protected]@Main
Codec ID                                 : V_MPEGH/ISO/HEVC
Duration                                 : 24 min 15 s
Bit rate                                 : 2 006 kb/s
Width                                    : 1 920 pixels
Height                                   : 1 080 pixels
Display aspect ratio                     : 16:9
Frame rate mode                          : Constant
Frame rate                               : 23.976 (24000/1001) FPS
Color space                              : YUV
Chroma subsampling                       : 4:2:0
Bit depth                                : 10 bits
Bits/(Pixel*Frame)                       : 0.040
Stream size                              : 348 MiB (89%)
Writing library                          : x265 2.1+69-c97c64ab8b8e:[Windows][GCC 6.2.0][64 bit] 10bit
Encoding settings                        : cpuid=1173503 / frame-threads=2 / numa-pools=4 / wpp / no-pmode / no-pme / no-psnr / no-ssim / log-level=2 / input-csp=1 / input-res=1920x1080 / interlace=0 / total-frames=34886 / level-idc=0 / high-tier=1 / uhd-bd=0 / ref=4 / no-allow-non-conformance / no-repeat-headers / annexb / no-aud / no-hrd / info / hash=0 / no-temporal-layers / open-gop / min-keyint=23 / keyint=250 / bframes=4 / b-adapt=2 / b-pyramid / bframe-bias=0 / rc-lookahead=25 / lookahead-slices=4 / scenecut=40 / no-intra-refresh / ctu=64 / min-cu-size=8 / rect / no-amp / max-tu-size=32 / tu-inter-depth=1 / tu-intra-depth=1 / limit-tu=0 / rdoq-level=2 / signhide / no-tskip / nr-intra=0 / nr-inter=0 / no-constrained-intra / strong-intra-smoothing / max-merge=3 / limit-refs=3 / limit-modes / me=3 / subme=3 / merange=57 / temporal-mvp / weightp / no-weightb / no-analyze-src-pics / deblock=0:0 / sao / no-sao-non-deblock / rd=4 / no-early-skip / rskip / no-fast-intra / no-tskip-fast / no-cu-lossless / no-b-intra / rdpenalty=0 / psy-rd=2.00 / psy-rdoq=1.00 / no-rd-refine / analysis-mode=0 / no-lossless / cbqpoffs=0 / crqpoffs=0 / rc=crf / crf=19.0 / qcomp=0.60 / qpstep=4 / stats-write=0 / stats-read=0 / ipratio=1.40 / pbratio=1.30 / aq-mode=1 / aq-strength=1.00 / cutree / zone-count=0 / no-strict-cbr / qg-size=32 / no-rc-grain / qpmax=69 / qpmin=0 / sar=0 / overscan=0 / videoformat=5 / range=0 / colorprim=2 / transfer=2 / colormatrix=2 / chromaloc=0 / display-window=0 / max-cll=0,0 / min-luma=0 / max-luma=1023 / log2-max-poc-lsb=8 / vui-timing-info / vui-hrd-info / slices=1 / opt-qp-pps / opt-ref-list-length-pps / no-multi-pass-opt-rps / scenecut-bias=0.05
Default                                  : Yes
Forced                                   : No

Audio
ID                                       : 2
Format                                   : AAC
Format/Info                              : Advanced Audio Codec
Format profile                           : LC
Codec ID                                 : A_AAC
Duration                                 : 24 min 15 s
Bit rate                                 : 232 kb/s
Channel(s)                               : 6 channels
Channel positions                        : Front: L C R, Side: L R, LFE
Sampling rate                            : 48.0 kHz
Frame rate                               : 46.875 FPS (1024 spf)
Compression mode                         : Lossy
Delay relative to video                  : 9 ms
Stream size                              : 40.2 MiB (10%)
Language                                 : English
Default                                  : No
Forced                                   : No

Text #1
ID                                       : 3
Format                                   : PGS
Muxing mode                              : zlib
Codec ID                                 : S_HDMV/PGS
Codec ID/Info                            : Picture based subtitle format used on BDs/HD-DVDs
Duration                                 : 24 min 11 s
Bit rate                                 : 14.0 kb/s
Count of elements                        : 652
Stream size                              : 2.42 MiB (1%)
Language                                 : English
Default                                  : No
Forced                                   : No

Text #2
ID                                       : 4
Format                                   : PGS
Muxing mode                              : zlib
Codec ID                                 : S_HDMV/PGS
Codec ID/Info                            : Picture based subtitle format used on BDs/HD-DVDs
Duration                                 : 21 min 58 s
Bit rate                                 : 2 896 b/s
Count of elements                        : 112
Stream size                              : 466 KiB (0%)
Language                                 : English
Default                                  : No
Forced                                   : No

Menu
00:00:00.000                             : en:Chapter 01
00:01:46.022                             : en:Chapter 02
00:03:15.987                             : en:Chapter 03
00:10:01.976                             : en:Chapter 04
00:22:10.996                             : en:Chapter 05
00:23:41.002                             : en:Chapter 06

........................................................................


Loading...


Trackers:
udp://tracker.zer0day.to:1337/announce

[Prof] Overlord S1 (1080p x265 HEVC 10bit AAC 5.1 Eng Dub)
Files
1.mkv391.48 MB
10.mkv323.82 MB
11.mkv322.91 MB
12.mkv387.78 MB
13.mkv369.05 MB
2.mkv349.13 MB
3.mkv442.64 MB
4.mkv448.40 MB
5.mkv323.34 MB
6.mkv408.29 MB
7.mkv406.93 MB
8.mkv343.56 MB
9.mkv403.02 MB


Similar Torrents
Type Name Size Added S L
All [Prof] Outbreak Company (1080p x265 HEVC 10bit AAC...
3.22 GB 2018-07-19 04:08:17 19 15

Comments:
No comments still posted
Loading...
Powered by TT | Page Generated In 0.042805 secs.
| RSS Feed | Feed Info