[Login] or [Signup]

First Cams

Xvid/x264



Non-English

Loading...

[Prof] Berserk: The Battle for Doldrey (1080p x265 HEVC 10bit AAC 5.1 Dual Audio)


Complete Name :[Prof] Berserk: The Battle for Doldrey (1080p x265 HEVC 10bit AAC 5.1 Dual Audio)
Download torrent:    [Prof] Berserk: The Battle for Doldrey (1080p x265 HEVC 10bit AAC 5.1 Dual Audio).torrent
Info Hash:618b7dfa939d8e03b8ca2ab6b469827e7e9c1b48
Category:Anime  > All
Torrent language:English  
Seeds | Leech:10 | 5
Complete: 214
Health:
Total Size:2.67 GB
Downloaded:10 Times
Added By:      Prof
Date Added:15-06-2018 07:55:am | Last Edit:  13-09-2018 04:52:pm

 

Main Technical Comments
Format                                   : Matroska
Format version                           : Version 4 / Version 2
File size                                : 2.67 GiB
Duration                                 : 1 h 32 min
Overall bit rate                         : 4 132 kb/s
Movie name                               : Berserk: The Golden Age Arc II
Encoded date                             : UTC 2018-06-14 21:45:34
Writing application                      : mkvmerge v9.6.0 ('Slave To Your Mind') 64bit
Writing library                          : libebml v1.3.4 + libmatroska v1.4.5

Video
ID                                       : 1
Format                                   : HEVC
Format/Info                              : High Efficiency Video Coding
Format profile                           : Main [email protected]@Main
Codec ID                                 : V_MPEGH/ISO/HEVC
Duration                                 : 1 h 32 min
Bit rate                                 : 2 064 kb/s
Width                                    : 1 920 pixels
Height                                   : 1 080 pixels
Display aspect ratio                     : 16:9
Frame rate mode                          : Constant
Frame rate                               : 23.976 (24000/1001) FPS
Color space                              : YUV
Chroma subsampling                       : 4:2:0
Bit depth                                : 10 bits
Bits/(Pixel*Frame)                       : 0.042
Stream size                              : 1.33 GiB (50%)
Writing library                          : x265 2.1+69-c97c64ab8b8e:[Windows][GCC 6.2.0][64 bit] 10bit
Encoding settings                        : cpuid=1173503 / frame-threads=2 / numa-pools=4 / wpp / no-pmode / no-pme / no-psnr / no-ssim / log-level=2 / input-csp=1 / input-res=1920x1080 / interlace=0 / total-frames=132927 / level-idc=0 / high-tier=1 / uhd-bd=0 / ref=4 / no-allow-non-conformance / no-repeat-headers / annexb / no-aud / no-hrd / info / hash=0 / no-temporal-layers / open-gop / min-keyint=23 / keyint=250 / bframes=4 / b-adapt=2 / b-pyramid / bframe-bias=0 / rc-lookahead=25 / lookahead-slices=4 / scenecut=40 / no-intra-refresh / ctu=64 / min-cu-size=8 / rect / no-amp / max-tu-size=32 / tu-inter-depth=1 / tu-intra-depth=1 / limit-tu=0 / rdoq-level=2 / signhide / no-tskip / nr-intra=0 / nr-inter=0 / no-constrained-intra / strong-intra-smoothing / max-merge=3 / limit-refs=3 / limit-modes / me=3 / subme=3 / merange=57 / temporal-mvp / weightp / no-weightb / no-analyze-src-pics / deblock=0:0 / sao / no-sao-non-deblock / rd=4 / no-early-skip / rskip / no-fast-intra / no-tskip-fast / no-cu-lossless / no-b-intra / rdpenalty=0 / psy-rd=2.00 / psy-rdoq=1.00 / no-rd-refine / analysis-mode=0 / no-lossless / cbqpoffs=0 / crqpoffs=0 / rc=crf / crf=18.0 / qcomp=0.60 / qpstep=4 / stats-write=0 / stats-read=0 / ipratio=1.40 / pbratio=1.30 / aq-mode=1 / aq-strength=1.00 / cutree / zone-count=0 / no-strict-cbr / qg-size=32 / no-rc-grain / qpmax=69 / qpmin=0 / sar=0 / overscan=0 / videoformat=5 / range=0 / colorprim=2 / transfer=2 / colormatrix=2 / chromaloc=0 / display-window=0 / max-cll=0,0 / min-luma=0 / max-luma=1023 / log2-max-poc-lsb=8 / vui-timing-info / vui-hrd-info / slices=1 / opt-qp-pps / opt-ref-list-length-pps / no-multi-pass-opt-rps / scenecut-bias=0.05
Default                                  : Yes
Forced                                   : No

Audio #1
ID                                       : 2
Format                                   : AAC
Format/Info                              : Advanced Audio Codec
Format profile                           : LC
Codec ID                                 : A_AAC
Duration                                 : 1 h 32 min
Bit rate                                 : 1 029 kb/s
Channel(s)                               : 6 channels
Channel positions                        : Front: L C R, Side: L R, LFE
Sampling rate                            : 48.0 kHz
Frame rate                               : 46.875 FPS (1024 spf)
Compression mode                         : Lossy
Delay relative to video                  : 9 ms
Stream size                              : 680 MiB (25%)
Language                                 : English
Default                                  : Yes
Forced                                   : No

Audio #2
ID                                       : 3
Format                                   : AAC
Format/Info                              : Advanced Audio Codec
Format profile                           : LC
Codec ID                                 : A_AAC
Duration                                 : 1 h 32 min
Bit rate                                 : 1 029 kb/s
Channel(s)                               : 6 channels
Channel positions                        : Front: L C R, Side: L R, LFE
Sampling rate                            : 48.0 kHz
Frame rate                               : 46.875 FPS (1024 spf)
Compression mode                         : Lossy
Delay relative to video                  : 9 ms
Stream size                              : 680 MiB (25%)
Language                                 : Japanese
Default                                  : No
Forced                                   : No

Text
ID                                       : 4
Format                                   : PGS
Muxing mode                              : zlib
Codec ID                                 : S_HDMV/PGS
Codec ID/Info                            : Picture based subtitle format used on BDs/HD-DVDs
Duration                                 : 1 h 25 min
Bit rate                                 : 6 554 b/s
Count of elements                        : 1710
Stream size                              : 4.00 MiB (0%)
Language                                 : English
Default                                  : No
Forced                                   : No

Menu
00:00:00.000                             : en:Chapter 01
00:02:14.217                             : en:Chapter 02
00:17:06.567                             : en:Chapter 03
00:31:27.510                             : en:Chapter 04
00:53:14.733                             : en:Chapter 05
01:04:19.772                             : en:Chapter 06
01:12:48.781                             : en:Chapter 07
01:26:13.668                             : en:Chapter 08
01:27:14.437                             : en:Chapter 09


........................................................................


Loading...


Trackers:
udp://tracker.zer0day.to:1337/announce

[Prof] Berserk: The Battle for Doldrey (1080p x265 HEVC 10bit AAC 5.1 Dual Audio)
Files
[Prof] Berserk - The Golden Age Arc II - The Battle for Doldrey.mkv2.67 GB


Similar Torrents
Type Name Size Added S L
All [Prof] Berserk: The Egg of the King (1080p x265 HE...
2.12 GB 2018-06-14 05:06:58 14 5
All [Prof] Berserk: The Advent (1080p x265 HEVC 10bit ...
2.94 GB 2018-06-16 04:15:40 8 3

Comments:
No comments still posted
Loading...
Powered by TT | Page Generated In 0.042603 secs.
| RSS Feed | Feed Info