[Login] or [Signup]


Warning! Use a VPN When Downloading Torrents!
Your IP Address is .   Location is
Your Internet Provider is tracking your torrent activity!  Hide your IP ADDRESS with a VPN!
We strongly recommend using Trust.Zone VPN to anonymize your torrenting. It's FREE!
Get VPN Now for FREE!
First Cams

Xvid/x264



Non-English

Site Friends
      ETTV

      WorldWide Torrents

      Free Tutorials

      Aiosearch


Loading...

The Passage S01E06 I Want to Know What You Taste Like 1080p Webrip x265 EAC3 5.1 Goki [SEV].mkv


Complete Name :The Passage S01E06 I Want to Know What You Taste Like 1080p Webrip x265 EAC3 5.1 Goki [SEV].mkv
Download torrent:    The Passage S01E06 I Want to Know What You Taste Like 1080p Webrip x265 EAC3 5.1 Goki [SEV].mkv.torrent
Info Hash:7d1c318124d5fa78f8139b1767723153cd24cddd
Category:TV  > HEVC/x265
Torrent language:English  
Seeds | Leech:107 | 23
Complete: 564
Health:
Total Size:1.24 GB
Added By:      SEV
Date Added:20-02-2019 02:05:pm | Last Edit:  21-02-2019 08:30:am

 

IMDB
The Passage
The Passage Released 14 Jan 2019

Genre Action, Adventure, Drama, Fantasy, Horror, Sci-Fi

Director N/A

Writer Liz Heldens

Actors Mark-Paul Gosselaar, Saniyya Sidney, Jamie McShane, Caroline Chikezie

Plot When a botched U.S. government experiment turns a group of death row inmates into highly infectious vampires, an orphan girl might be the only person able to stop the ensuing crisis.

Link https://www.imdb.com/title/tt1074206/

Last Updated 19-03-2019 18:07:30
7.5

Votes 4,727

Main Technical Comments








Media Information

Unique ID                                : 252346319056891884058595485367098567603 (0xBDD8221AE2F596EDA7726D4DD7026BB3)
Complete name                            : The Passage S01E06 I Want to Know What You Taste Like 1080p Webrip x265 EAC3 5.1 Goki [SEV].mkv
Format                                   : Matroska
Format version                           : Version 4
File size                                : 1.24 GiB
Duration                                 : 44 min 52 s
Overall bit rate                         : 3 967 kb/s
Encoded date                             : UTC 2019-02-20 11:38:49
Writing application                      : mkvmerge v13.0.0 ('The Juggler') 64bit
Writing library                          : libebml v1.3.4 + libmatroska v1.4.5 / Lavf57.73.100
Writing application                      : Internet Friendly Media Encoder v7.7 ('Prism Ark')
Writing library                          : IFME v7.7 amd64 windows

Video
ID                                       : 1
Format                                   : HEVC
Format/Info                              : High Efficiency Video Coding
Format profile                           : Main [email protected]@Main
Codec ID                                 : V_MPEGH/ISO/HEVC
Duration                                 : 44 min 52 s
Bit rate                                 : 3 248 kb/s
Width                                    : 1 920 pixels
Height                                   : 1 080 pixels
Display aspect ratio                     : 16:9
Frame rate mode                          : Constant
Frame rate                               : 23.976 (24000/1001) FPS
Color space                              : YUV
Chroma subsampling                       : 4:2:0
Bit depth                                : 10 bits
Bits/(Pixel*Frame)                       : 0.065
Stream size                              : 1.02 GiB (82%)
Writing library                          : x265 2.9+8-27d8424c799d:[Windows][MSVC 1915][64 bit] 10bit
Encoding settings                        : cpuid=1111039 / frame-threads=3 / numa-pools=8 / wpp / no-pmode / no-pme / no-psnr / no-ssim / log-level=2 / input-csp=1 / input-res=1920x1080 / interlace=0 / total-frames=0 / level-idc=0 / high-tier=1 / uhd-bd=0 / ref=4 / no-allow-non-conformance / no-repeat-headers / annexb / no-aud / no-hrd / info / hash=0 / no-temporal-layers / open-gop / min-keyint=23 / keyint=250 / gop-lookahead=0 / bframes=8 / b-adapt=2 / b-pyramid / bframe-bias=0 / rc-lookahead=100 / lookahead-slices=4 / scenecut=40 / radl=0 / no-intra-refresh / ctu=64 / min-cu-size=8 / no-rect / no-amp / max-tu-size=32 / tu-inter-depth=1 / tu-intra-depth=1 / limit-tu=0 / rdoq-level=2 / dynamic-rd=0.00 / no-ssim-rd / signhide / no-tskip / nr-intra=0 / nr-inter=0 / no-constrained-intra / no-strong-intra-smoothing / max-merge=3 / limit-refs=3 / limit-modes / me=3 / subme=5 / merange=57 / temporal-mvp / weightp / no-weightb / no-analyze-src-pics / deblock=0:0 / sao / no-sao-non-deblock / rd=4 / no-early-skip / rskip / no-fast-intra / no-tskip-fast / no-cu-lossless / no-b-intra / no-splitrd-skip / rdpenalty=0 / psy-rd=1.30 / psy-rdoq=2.00 / no-rd-refine / no-lossless / cbqpoffs=0 / crqpoffs=0 / rc=crf / crf=21.0 / qcomp=0.60 / qpstep=4 / stats-write=0 / stats-read=0 / ipratio=1.40 / pbratio=1.30 / aq-mode=2 / aq-strength=1.10 / cutree / zone-count=0 / no-strict-cbr / qg-size=32 / no-rc-grain / qpmax=69 / qpmin=0 / no-const-vbv / sar=1 / overscan=0 / videoformat=5 / range=0 / colorprim=2 / transfer=2 / colormatrix=2 / chromaloc=0 / display-window=0 / max-cll=0,0 / min-luma=0 / max-luma=1023 / log2-max-poc-lsb=8 / vui-timing-info / vui-hrd-info / slices=1 / no-opt-qp-pps / no-opt-ref-list-length-pps / no-multi-pass-opt-rps / scenecut-bias=0.05 / no-opt-cu-delta-qp / no-aq-motion / no-hdr / no-hdr-opt / no-dhdr10-opt / no-idr-recovery-sei / analysis-reuse-level=5 / scale-factor=0 / refine-intra=0 / refine-inter=0 / refine-mv=0 / no-limit-sao / ctu-info=0 / no-lowpass-dct / refine-mv-type=0 / copy-pic=1 / max-ausize-factor=1.0 / no-dynamic-refine / no-single-sei
Default                                  : Yes
Forced                                   : No

Audio
ID                                       : 2
Format                                   : E-AC-3
Format/Info                              : Enhanced AC-3
Commercial name                          : Dolby Digital Plus
Codec ID                                 : A_EAC3
Duration                                 : 44 min 52 s
Bit rate mode                            : Constant
Bit rate                                 : 640 kb/s
Channel(s)                               : 6 channels
Channel layout                           : L R C LFE Ls Rs
Sampling rate                            : 48.0 kHz
Frame rate                               : 31.250 FPS (1536 SPF)
Compression mode                         : Lossy
Stream size                              : 205 MiB (16%)
Language                                 : English
Service kind                             : Complete Main
Default                                  : Yes
Forced                                   : No

Text
ID                                       : 3
Format                                   : UTF-8
Codec ID                                 : S_TEXT/UTF8
Codec ID/Info                            : UTF-8 Plain Text
Language                                 : English
Default                                  : Yes
Forced                                   : No




We have no issue with individuals posting or re-uploading our torrents on a platform we aren't on. However, if this is something you'd like to do, please do so in a 'as-is' format. We ask that you do not create a new torrent, include all descriptions you see above including the SEV logo, tags, notes and screenshots. If you'd like to become a permanent poster on a website we don't post to, feel free to get in contact with a Sublime Encoded Video member.


We are recruiting/training new members for SEV & seedbox providers as well as people to help out with subtitles.
As you already know, we deliver quality, so you know the standard.
If you're interested, feel free to contact any of the team members.
........................................................................


Loading...


Trackers:
udp://tracker.coppersurfer.tk:6969/announce

This Torrent also has backup trackers
URLSeedersLeechersCompleted
http://0d.kebhana.mx:443/announce000
https://open.acgnxtracker.com/announce000
https://tr.fuuko.net/announce000
http://bt.dl1234.com/announce000
http://p4p.arenabg.com:1337/announce000
http://tracker.opentrackr.org:1337/announce000
http://torrentsmd.com:8080/announce000
http://tracker.city9x.com:2710/announce000
https://linetorrent.xyz/announce000

The Passage S01E06 I Want to Know What You Taste Like 1080p Webrip x265 EAC3 5.1 Goki [SEV].mkv
Files
The Passage S01E06 I Want to Know What You Taste Like 1080p Webrip x265 EAC3 5.1 Goki [SEV].mkv --- 1.24 GB


Similar Torrents
Type Name Size Added S L
x264 The.Passage.S01E09.WEB.x264-TBS[ettv]
353.04 MB 2019-03-12 02:10:31 4304 1376
x264 The.Passage.S01E08.WEB.x264-TBS[ettv]
353.95 MB 2019-03-05 04:12:25 4058 1291
x264 The.Passage.S01E10.WEB.x264-TBS[ettv]
354.86 MB 2019-03-12 03:12:25 3835 1059
x264 The.Passage.S01E07.WEB.x264-TBS[ettv]
354.07 MB 2019-02-26 04:12:22 3725 1138
x264 The.Passage.S01E02.WEB.x264-TBS[ettv]
354.04 MB 2019-01-22 04:12:28 3135 595
HD Video Three years ago, the day of the pregnancy period, ...
667.63 MB 2019-03-04 06:43:54 2841 2929
x264 The.Passage.S01E04.WEB.x264-TBS[ettv]
355.49 MB 2019-02-05 04:10:53 2749 780
x264 The.Passage.S01E05.WEB.x264-TBS[ettv]
353.81 MB 2019-02-12 04:09:05 2675 771
x264 The.Passage.S01E06.WEB.x264-TBS[ettv]
354.44 MB 2019-02-19 04:11:36 2618 797
x264 The.Passage.S01E03.WEB.x264-TBS[ettv]
354.45 MB 2019-01-27 04:16:47 1902 315

Comments:
No comments still posted
Loading...
Powered by TT | Page Generated In 0.279433 secs.
| RSS Feed | Feed Info