[Login] or [Signup]

First Cams

Xvid/x264



Non-English

Loading...

Baaghi 2 2018 Hindi 1080p WEB-DL x264 [MW]


Complete Name :Baaghi 2 2018 Hindi 1080p WEB-DL x264 [MW]
Download torrent:    Baaghi 2 2018 Hindi 1080p WEB-DL x264 [MW].torrent
Info Hash:a5f21bf4bc607624fb10b44ea10fcaeca39cfef5
Category:Movies  > Non-English
Torrent language:Hindi  
Seeds | Leech:297 | 174
Complete: 3,348
Health:
Total Size:2.18 GB
Downloaded:16 Times
Added By:      MovieFreak
Date Added:13-06-2018 11:59:am | Last Edit:  13-09-2018 04:52:pm

 

Main Technical Comments




General
Format                                   : Matroska
Format version                           : Version 4 / Version 2
File size                                : 2.18 GiB
Duration                                 : 2 h 14 min
Overall bit rate                         : 2 318 kb/s

Video
ID                                       : 1
Format                                   : AVC
Format/Info                              : Advanced Video Codec
Format profile                           : [email protected]
Format settings                          : CABAC / 4 Ref Frames
Format settings, CABAC                   : Yes
Format settings, RefFrames               : 4 frames
Codec ID                                 : V_MPEG4/ISO/AVC
Duration                                 : 2 h 14 min
Bit rate                                 : 2 200 kb/s
Width                                    : 1 920 pixels
Height                                   : 804 pixels
Display aspect ratio                     : 2.40:1
Frame rate mode                          : Constant
Frame rate                               : 25.000 FPS
Color space                              : YUV
Chroma subsampling                       : 4:2:0
Bit depth                                : 8 bits
Scan type                                : Progressive
Bits/(Pixel*Frame)                       : 0.057
Stream size                              : 2.06 GiB (94%)
Writing library                          : x264 core 155 r2901 7d0ff22
Default                                  : Yes
Forced                                   : No

Audio
ID                                       : 2
Format                                   : AAC
Format/Info                              : Advanced Audio Codec
Format profile                           : LC
Codec ID                                 : A_AAC-2
Duration                                 : 2 h 14 min
Bit rate                                 : 128 kb/s
Channel(s)                               : 2 channels
Channel positions                        : Front: L R
Sampling rate                            : 48.0 kHz
Frame rate                               : 46.875 FPS (1024 SPF)
Compression mode                         : Lossy
Stream size                              : 123 MiB (6%)
Default                                  : Yes
Forced                                   : No







........................................................................


Loading...


Trackers:
udp://tracker.coppersurfer.tk:6969/announce

Baaghi 2 2018 Hindi 1080p WEB-DL x264 [MW]
Files
Baaghi 2 2018 Hindi 1080p WEB-DL x264 [MW].mkv2.18 GB


Similar Torrents
Type Name Size Added S L
HD Baaghi 2 2018 Hindi 720p HDRip x264 AAC { TaRa }.m...
1.20 GB 2018-08-08 17:43:48 356 217
Non-English Baaghi 2 (2018) Hindi 720p V2 HDRip x264 AAC ESubs...
1.13 GB 2018-06-11 19:20:22 342 68
Non-English Baaghi 2 (2018) 1-3 Desi Pre DvD Rip - x264 AC3 - ...
1.47 GB 2018-03-30 20:14:35 337 718
DVD Baaghi 2 (2018) DVDRip 720p Hindi H.264 AAC - Late...
1.20 GB 2018-08-08 12:37:24 259 49
HD Baaghi 2 2018 Hindi 720p WEBRip-X264-AC3 5.1-Zi$t
1.43 GB 2018-06-11 09:23:09 36 1
HD Baaghi 2016 x264 1080p BluRay Hindi GOPISAHI
31.31 GB 2018-09-20 13:27:22 29 109

Comments:
No comments still posted
Loading...
Powered by TT | Page Generated In 0.035371 secs.
| RSS Feed | Feed Info