Warning! Use a VPN When Downloading Torrents!
Your IP Address is .   Location is
Your Internet Provider is tracking your torrent activity!  Hide your IP ADDRESS with a VPN!
We strongly recommend using ExpressVPN to anonymize your torrenting. 30 Day Money Back Guarantee!
Try it Now!
First Cams

Xvid/x264



Non-English

Site Friends
      ETTV

      WorldWide Torrents

      Free Tutorials

      Aiosearch


Loading...

Cold Pursuit 2019 720p HDCAM x264 [MW]


Download torrent:    
Info Hash:  8ccbe6e618123d67dbdf1b0d9a3c845eed6e449a
Category:  Movies  > Cam/TS
Torrent language:  English  
Seeds | Leech:  758 | 443
Complete:   2,762
Health:   
Total Size:  899.33 MB
Added By:        MovieFreak
Date Added:  17-02-2019 10:14:am | Last Edit:  17-02-2019 09:14:pm

IMDB
Cold Pursuit
Cold Pursuit Released 08 Feb 2019

Genre Action, Crime, Drama, Thriller

Director Hans Petter Moland

Writer Frank Baldwin (screenplay by), Kim Fupz Aakeson (based on the movie 'Kraftidioten' written by)

Actors Liam Neeson, Laura Dern, Micheál Richardson, Michael Eklund

Plot A grieving snowplow driver seeks out revenge against the drug dealers who killed his son. Based on the 2014 Norwegian film 'In Order of Disappearance'.

Link http://www.imdb.com/title/tt5719748

Last Updated 19-05-2019 09:40:51
6.3

Votes 19,260

Un système d'onglets en javascript
Description Trackers Files Comments Download




General
Format                                   : Matroska
Format version                           : Version 4
File size                                : 899 MiB
Duration                                 : 1 h 45 min
Overall bit rate                         : 1 195 kb/s

Video
ID                                       : 1
Format                                   : AVC
Format/Info                              : Advanced Video Codec
Format profile                           : [email protected]
Format settings                          : CABAC / 4 Ref Frames
Format settings, CABAC                   : Yes
Format settings, RefFrames               : 4 frames
Codec ID                                 : V_MPEG4/ISO/AVC
Duration                                 : 1 h 45 min
Bit rate                                 : 1 000 kb/s
Width                                    : 1 280 pixels
Height                                   : 534 pixels
Display aspect ratio                     : 2.40:1
Frame rate mode                          : Constant
Frame rate                               : 29.970 (30000/1001) FPS
Color space                              : YUV
Chroma subsampling                       : 4:2:0
Bit depth                                : 8 bits
Scan type                                : Progressive
Bits/(Pixel*Frame)                       : 0.049
Stream size                              : 753 MiB (84%)
Writing library                          : x264 core 157 r2935 545de2f

Audio
ID                                       : 2
Format                                   : AAC LC
Codec ID                                 : A_AAC-2
Duration                                 : 1 h 45 min
Bit rate                                 : 192 kb/s
Channel(s)                               : 2 channels
Channel layout                           : L R
Sampling rate                            : 48.0 kHz
Frame rate                               : 46.875 FPS (1024 SPF)
Compression mode                         : Lossy
Stream size                              : 144 MiB (16%)
Language                                 : English
Default                                  : Yes
Forced                                   : No


Click To View Image

https://pichub.site/image/k2umb
https://pichub.site/image/k2UaV
https://pichub.site/image/k2vzT
https://pichub.site/image/k2x5N
https://pichub.site/image/k20qD
https://pichub.site/image/k2rwZ



Similar Torrents
Type Name Size Added S L
Divx/Xvid Cold.Pursuit.2019.HDRip.XviD.AC3-EVO
1.40 GB 2019-04-30 06:52:00 4051 3245
h.264/x264 Cold.Pursuit.2019.HC.HDRip.XviD.AC3-EVO[EtMovies]
1.37 GB 2019-04-26 00:02:36 3789 1340
Divx/Xvid Cold.Pursuit.2019.HC.HDRip.XviD.AC3-EVO
1.37 GB 2019-04-26 07:27:59 3159 1240
HD Cold.Pursuit.2019.HC.HDRip.720p.YG
951.33 MB 2019-04-28 02:39:19 2796 1171
Divx/Xvid Cold.Pursuit.2019.HDCAM.XViD.AC3-ETRG
1.26 GB 2019-02-09 12:46:28 2748 2442
h.264/x264 Cold.Pursuit.2019.1080p.HC.HDRip.X264.AC3-EVO[EtHD...
3.35 GB 2019-04-26 21:23:11 2535 845
HD Cold.Pursuit.2019.1080p.WEB-DL.DD5.1.H264-CMRG[EtH...
4.12 GB 2019-04-30 06:49:09 956 1100
h.264/x264 Cold.Pursuit.2019.HDRip.BLURRED.AC3.X264-CMRG[EtMo...
1.31 GB 2019-04-26 17:53:59 782 167
Divx/Xvid Cold.Pursuit.2019.BRRip.XviD.AC3-EVO
1.40 GB 2019-05-04 16:46:44 734 340
HD Cold.Pursuit.2019.1080p.BluRay.x264-GECKOS[EtHD]
7.67 GB 2019-05-04 16:32:06 611 696

Loading...


Trackers:
udp://tracker.coppersurfer.tk:6969/announce

Cold Pursuit 2019 720p HDCAM x264 [MW]
Files
Cold Pursuit 2019 720p HDCAM x264 [MW].mkv (899.33 MB)


Comments:

<< Previous      Next >>
1 - 2

[Report] Posted: 03-03-2019 at 10:06:14
corekiller



seeding here less adds though would be nice we all know 1xbet did this

[Report] Posted: 17-02-2019 at 23:52:47
mafkees



1x bet this

1 - 2
<< Previous      Next >>

Loading...
Powered by TT | Page Generated In 0.685280 secs.
| RSS Feed | Feed Info