[Login] or [Signup]

First Cams

Xvid/x264



Non-English

Loading...

Kaala 2018 Hindi 720p PreDVD Rip x264 AAC [MW]


Complete Name :Kaala 2018 Hindi 720p PreDVD Rip x264 AAC [MW]
Download torrent:    Kaala 2018 Hindi 720p PreDVD Rip x264 AAC [MW].torrent
Info Hash:5f70666a8e94ce05a73ce4831a0c65833b47c462
Category:Movies  > Non-English
Torrent language:Hindi  
Seeds | Leech:625 | 49
Complete: 10,928
Health:
Total Size:1.13 GB
Downloaded:19 Times
Added By:      MovieFreak
Date Added:12-06-2018 02:04:pm | Last Edit:  13-09-2018 04:52:pm

 

IMDB
Kaala
Kaala Released 06 Jun 2018

Genre Action, Drama

Director Pa. Ranjith

Writer Shivgopal Krishna (hindi dialogue), Maginan (story), Pa. Ranjith (story/screenplay), M. Sreeramakrishna (telugu dialogue), Aadhavan Theetchanya (tamil dialogue)

Actors Rajinikanth, Nana Patekar, Easwari Rao, Huma Qureshi

Plot Kaala is about the life of Nellai / Tirunelveli based Tamils who live in large number in Mumbai.

Link http://www.imdb.com/title/tt6929642

Last Updated 17-10-2018 11:02:15
7.1

Votes 5,407

Main Technical Comments




Format                                   : Matroska
Format version                           : Version 4 / Version 2
File size                                : 1.13 GiB
Duration                                 : 2 h 37 min
Overall bit rate                         : 1 034 kb/s

Video
ID                                       : 1
Format                                   : AVC
Format/Info                              : Advanced Video Codec
Format profile                           : [email protected]
Format settings                          : CABAC / 4 Ref Frames
Format settings, CABAC                   : Yes
Format settings, RefFrames               : 4 frames
Codec ID                                 : V_MPEG4/ISO/AVC
Duration                                 : 2 h 37 min
Bit rate                                 : 900 kb/s
Width                                    : 1 280 pixels
Height                                   : 422 pixels
Display aspect ratio                     : 3.033
Frame rate mode                          : Constant
Frame rate                               : 25.000 FPS
Color space                              : YUV
Chroma subsampling                       : 4:2:0
Bit depth                                : 8 bits
Scan type                                : Progressive
Bits/(Pixel*Frame)                       : 0.067
Stream size                              : 1 015 MiB (87%)
Writing library                          : x264 core 155 r2901 7d0ff22
Default                                  : Yes
Forced                                   : No

Audio
ID                                       : 2
Format                                   : AAC
Format/Info                              : Advanced Audio Codec
Format profile                           : LC
Codec ID                                 : A_AAC-2
Duration                                 : 2 h 37 min
Bit rate                                 : 128 kb/s
Channel(s)                               : 2 channels
Channel positions                        : Front: L R
Sampling rate                            : 48.0 kHz
Frame rate                               : 46.875 FPS (1024 SPF)
Compression mode                         : Lossy
Stream size                              : 144 MiB (12%)
Language                                 : Hindi
Default                                  : Yes
Forced                                   : No








........................................................................


Loading...


Trackers:
udp://tracker.coppersurfer.tk:6969/announce

Kaala 2018 Hindi 720p PreDVD Rip x264 AAC [MW]
Files
Kaala 2018 Hindi 720p PreDVD Rip x264 AAC [MW].mkv1.13 GB


Similar Torrents
Type Name Size Added S L
HD Kaala 2018 Hindi 720p WEBRip-X264-AC3-Zi$t
1.62 GB 2018-07-28 15:24:29 1027 672
Non-English mkvCinemas.live - Kaala 2018 Hindi WebRip 720p x26...
1.59 GB 2018-08-26 17:06:52 687 527
HD Kaala 2018 x264 720p HD Esub Dual Audio Hindi Telu...
1,015.02 MB 2018-07-30 13:01:44 535 390
HD Kaala 2018 Hindi 720p WEB-DL x264 AAC { TaRa }.mkv
1.51 GB 2018-08-26 20:43:16 374 402
h.264/x264 Kaala 2018 Hindi PRE X264 AAC { TaRa }.mkv
805.50 MB 2018-06-08 17:33:45 98 58
HD Kaala.2018.1080p.AMZN.WEB-DL.DDP5.1.H.264-NTG[EtHD...
10.68 GB 2018-07-29 17:38:04 52 48
Cam/TS Kaala.2018.720p.Hindi.DVDScr.x264.MP3.LLG
1.42 GB 2018-06-15 20:10:52 45 30
HD Kaala 2018 Hindi 720p.WEBRip.X264.AC3.With.Sample....
1.18 GB 2018-08-04 11:03:10 10 8

Comments:
No comments still posted
Loading...
Powered by TT | Page Generated In 0.217033 secs.
| RSS Feed | Feed Info