[Login] or [Signup]

First Cams

Xvid/x264



Non-English

Loading...

[Prof] 91 Days (1080p x265 HEVC 10bit AAC 5.1 Eng Dub)


Complete Name :[Prof] 91 Days (1080p x265 HEVC 10bit AAC 5.1 Eng Dub)
Download torrent:    [Prof] 91 Days (1080p x265 HEVC 10bit AAC 5.1 Eng Dub).torrent
Info Hash:99a5179ff45eb0cfe14301481c5a8f68f315b2c6
Category:Anime  > All
Torrent language:English  
Seeds | Leech:10 | 3
Complete: 117
Health:
Total Size:6.10 GB
Downloaded:12 Times
Added By:      Prof
Date Added:09-06-2018 02:19:am | Last Edit:  13-09-2018 04:52:pm

 

Main Technical Comments
Format                                   : Matroska
Format version                           : Version 4 / Version 2
File size                                : 297 MiB
Duration                                 : 24 min 28 s
Overall bit rate                         : 1 695 kb/s
Movie name                               : 91 Days Disc1
Encoded date                             : UTC 2018-06-06 02:35:59
Writing application                      : mkvmerge v9.6.0 ('Slave To Your Mind') 64bit
Writing library                          : libebml v1.3.4 + libmatroska v1.4.5

Video
ID                                       : 1
Format                                   : HEVC
Format/Info                              : High Efficiency Video Coding
Format profile                           : Main [email protected]@Main
Codec ID                                 : V_MPEGH/ISO/HEVC
Duration                                 : 24 min 28 s
Bit rate                                 : 1 456 kb/s
Width                                    : 1 920 pixels
Height                                   : 1 080 pixels
Display aspect ratio                     : 16:9
Frame rate mode                          : Constant
Frame rate                               : 23.976 (24000/1001) FPS
Color space                              : YUV
Chroma subsampling                       : 4:2:0
Bit depth                                : 10 bits
Bits/(Pixel*Frame)                       : 0.029
Stream size                              : 255 MiB (86%)
Writing library                          : x265 2.1+69-c97c64ab8b8e:[Windows][GCC 6.2.0][64 bit] 10bit
Encoding settings                        : cpuid=1173503 / frame-threads=2 / numa-pools=4 / wpp / no-pmode / no-pme / no-psnr / no-ssim / log-level=2 / input-csp=1 / input-res=1920x1080 / interlace=0 / total-frames=35220 / level-idc=0 / high-tier=1 / uhd-bd=0 / ref=4 / no-allow-non-conformance / no-repeat-headers / annexb / no-aud / no-hrd / info / hash=0 / no-temporal-layers / open-gop / min-keyint=23 / keyint=250 / bframes=4 / b-adapt=2 / b-pyramid / bframe-bias=0 / rc-lookahead=25 / lookahead-slices=4 / scenecut=40 / no-intra-refresh / ctu=64 / min-cu-size=8 / rect / no-amp / max-tu-size=32 / tu-inter-depth=1 / tu-intra-depth=1 / limit-tu=0 / rdoq-level=2 / signhide / no-tskip / nr-intra=0 / nr-inter=0 / no-constrained-intra / strong-intra-smoothing / max-merge=3 / limit-refs=3 / limit-modes / me=3 / subme=3 / merange=57 / temporal-mvp / weightp / no-weightb / no-analyze-src-pics / deblock=0:0 / sao / no-sao-non-deblock / rd=4 / no-early-skip / rskip / no-fast-intra / no-tskip-fast / no-cu-lossless / no-b-intra / rdpenalty=0 / psy-rd=2.00 / psy-rdoq=1.00 / no-rd-refine / analysis-mode=0 / no-lossless / cbqpoffs=0 / crqpoffs=0 / rc=crf / crf=19.0 / qcomp=0.60 / qpstep=4 / stats-write=0 / stats-read=0 / ipratio=1.40 / pbratio=1.30 / aq-mode=1 / aq-strength=1.00 / cutree / zone-count=0 / no-strict-cbr / qg-size=32 / no-rc-grain / qpmax=69 / qpmin=0 / sar=0 / overscan=0 / videoformat=5 / range=0 / colorprim=2 / transfer=2 / colormatrix=2 / chromaloc=0 / display-window=0 / max-cll=0,0 / min-luma=0 / max-luma=1023 / log2-max-poc-lsb=8 / vui-timing-info / vui-hrd-info / slices=1 / opt-qp-pps / opt-ref-list-length-pps / no-multi-pass-opt-rps / scenecut-bias=0.05
Default                                  : Yes
Forced                                   : No

Audio
ID                                       : 2
Format                                   : AAC
Format/Info                              : Advanced Audio Codec
Format profile                           : LC
Codec ID                                 : A_AAC
Duration                                 : 24 min 28 s
Bit rate                                 : 228 kb/s
Channel(s)                               : 6 channels
Channel positions                        : Front: L C R, Side: L R, LFE
Sampling rate                            : 48.0 kHz
Frame rate                               : 46.875 FPS (1024 spf)
Compression mode                         : Lossy
Delay relative to video                  : 9 ms
Stream size                              : 39.9 MiB (13%)
Language                                 : English
Default                                  : No
Forced                                   : No

Text #1
ID                                       : 3
Format                                   : PGS
Muxing mode                              : zlib
Codec ID                                 : S_HDMV/PGS
Codec ID/Info                            : Picture based subtitle format used on BDs/HD-DVDs
Duration                                 : 22 min 49 s
Bit rate                                 : 9 361 b/s
Count of elements                        : 602
Stream size                              : 1.53 MiB (1%)
Language                                 : English
Default                                  : No
Forced                                   : No

Text #2
ID                                       : 4
Format                                   : PGS
Muxing mode                              : zlib
Codec ID                                 : S_HDMV/PGS
Codec ID/Info                            : Picture based subtitle format used on BDs/HD-DVDs
Duration                                 : 5 s 5 ms
Bit rate                                 : 8 743 b/s
Count of elements                        : 2
Stream size                              : 5.34 KiB (0%)
Language                                 : English
Default                                  : No
Forced                                   : No

Menu
00:00:00.000                             : en:Chapter 01
00:01:21.956                             : en:Chapter 02
00:09:28.776                             : en:Chapter 03
00:22:57.918                             : en:Chapter 04

........................................................................


Loading...


Trackers:
udp://tracker.zer0day.to:1337/announce

[Prof] 91 Days (1080p x265 HEVC 10bit AAC 5.1 Eng Dub)
Files
1.mkv296.80 MB
10.mkv441.20 MB
11.mkv402.81 MB
12.mkv453.88 MB
13.mkv560.99 MB
2.mkv332.49 MB
3.mkv566.38 MB
4.mkv589.86 MB
5.mkv508.63 MB
6.mkv511.54 MB
7.mkv493.50 MB
8.mkv560.03 MB
9.mkv524.99 MB


Comments:
No comments still posted
Loading...
Powered by TT | Page Generated In 0.042657 secs.
| RSS Feed | Feed Info