Warning! Use a VPN When Downloading Torrents!
Your IP Address is .   Location is
Your Internet Provider is tracking your torrent activity!  Hide your IP ADDRESS with a VPN!
We strongly recommend using Trust.Zone VPN to anonymize your torrenting. It's FREE!
Get VPN Now for FREE!
First Cams

Xvid/x264



Non-English

Site Friends
      ETTV

      WorldWide Torrents

      Free Tutorials

      Aiosearch


Loading...

211 - Rapina in corso (2018).720p.H264.italian.english.Ac3-5.1.sub.ita.eng-MIRCrew


Download torrent:      
Info Hash:  bd1a548bbe087d7ac079899f9136fdc7e762abd6
Category:  Movies  > HD
Torrent language:  English  
Seeds | Leech:  537 | 147
Complete:   4,044
Health:   
Total Size:  1.64 GB
Added By:        robbyrs
Date Added:  01-02-2019 12:51:pm | Last Edit:  02-02-2019 09:14:am

Un système d'onglets en javascript
Description Trackers Files Comments Download
211 - Rapina in corso (2018).720p.H264.italian.english.Ac3-5.1.sub.ita.eng-MIRCrew


NO FOUND ONLY ORIGINAL RELEASE


My release is always in double track audio italian and Original audio
for select it use VLC or dvd player home
not use wmp

211 - Rapina in corso (2018)

Quality MIRCrew on HD 720p da  1,7 gb










Titolo originale 211
Lingua originale inglese
Paese di produzione Stati Uniti d'America
Anno 2018
Durata 86 min
Genere azione
Regia York Shackleton
Sceneggiatura York Shackleton, John Rebus



   Nicolas Cage: Mike Chandler
   Cory Hardrict: Hanson
   Michael Rainey Jr.: Kenny
   Ori Pfeffer: Tre
   Weston Cage: Luke
   Sophie Skelton: Lisa MacAvoy
   Dwayne Cameron: Steve MacAvoy
   Amanda Cerny: Sarah
   Michael Bellisario: Hyde



Il film, tratto da una storia vera, segue quattro spietati criminali armati e ben addestrati che assalgono la Bank of America, trasformando 26 persone, tra impiegati e clienti, in ostaggi ad alto rischio.



While on a routine patrol, an aging cop, his partner and their ride-along get caught in a standoff with a band of former mercenaries robbing a bank.





General
Unique ID                                : 319629490902666914236319346649444259281 (0xF07666987600679C0469A5D7E1C615D1)
Complete name                            : 211 (2018).720p.h264.ita.eng.sub.ita.eng-MIRCrew\211 (2018).720p.h264.ita.eng.sub.ita.eng-MIRCrew.mkv
Format                                   : Matroska
Format version                           : Version 4 / Version 2
File size                                : 1.64 GiB
Duration                                 : 1h 27mn
Overall bit rate                         : 2 696 Kbps
Movie name                               : MIRCrew
Encoded date                             : UTC 2019-01-29T22:45:59Z
Writing application                      : mkvmerge v26.0.0 ('In The Game') 64-bit
Writing library                          : Lavf55.12.0

Video
ID                                       : 1
Format                                   : AVC
Format/Info                              : Advanced Video Codec
Format profile                           : [email protected]
Format settings, CABAC                   : Yes
Format settings, ReFrames                : 4 frames
Codec ID                                 : V_MPEG4/ISO/AVC
Duration                                 : 1h 27mn
Bit rate                                 : 1 900 Kbps
Width                                    : 1 280 pixels
Height                                   : 704 pixels
Display aspect ratio                     : 16:9
Frame rate                               : 24.000 fps
Color space                              : YUV
Chroma subsampling                       : 4:2:0
Bit depth                                : 8 bits
Scan type                                : Progressive
Bits/(Pixel*Frame)                       : 0.088
Stream size                              : 1.10 GiB (67%)
Title                                    : MIRCrew
Writing library                          : x264 core 142 r2479 dd79a61
Encoding settings                        : cabac=1 / ref=1 / deblock=1:-1:-1 / analyse=0x1:0x111 / me=hex / subme=2 / psy=1 / psy_rd=1.00:0.15 / mixed_ref=0 / me_range=16 / chroma_me=1 / trellis=0 / 8x8dct=0 / cqm=0 / deadzone=21,11 / fast_pskip=1 / chroma_qp_offset=0 / threads=6 / lookahead_threads=2 / sliced_threads=0 / nr=0 / decimate=1 / interlaced=0 / bluray_compat=0 / constrained_intra=0 / bframes=3 / b_pyramid=2 / b_adapt=1 / b_bias=0 / direct=1 / weightb=1 / open_gop=0 / weightp=1 / keyint=240 / keyint_min=24 / scenecut=40 / intra_refresh=0 / rc_lookahead=10 / rc=abr / mbtree=1 / bitrate=1900 / ratetol=1.0 / qcomp=0.60 / qpmin=0 / qpmax=69 / qpstep=4 / vbv_maxrate=50000 / vbv_bufsize=62500 / nal_hrd=none / filler=0 / ip_ratio=1.40 / aq=1:1.00
Language                                 : Italian
Default                                  : Yes
Forced                                   : No
DURATION                                 : 01:27:00.417000000
NUMBER_OF_FRAMES                         : 125290
NUMBER_OF_BYTES                          : 1214971557
_STATISTICS_WRITING_APP                  : mkvmerge v26.0.0 ('In The Game') 64-bit
_STATISTICS_WRITING_DATE_UTC             : 2019-01-31 23:50:15
_STATISTICS_TAGS                         : BPS DURATION NUMBER_OF_FRAMES NUMBER_OF_BYTES
Color primaries                          : BT.709-5, BT.1361, IEC 61966-2-4, SMPTE RP177
Transfer characteristics                 : BT.709-5, BT.1361
Matrix coefficients                      : BT.709-5, BT.1361, IEC 61966-2-4 709, SMPTE RP177

Audio #1
ID                                       : 2
Format                                   : AC-3
Format/Info                              : Audio Coding 3
Mode extension                           : CM (complete main)
Codec ID                                 : A_AC3
Duration                                 : 1h 27mn
Bit rate mode                            : Constant
Bit rate                                 : 448 Kbps
Channel(s)                               : 6 channels
Channel positions                        : Front: L C R, Side: L R, LFE
Sampling rate                            : 48.0 KHz
Bit depth                                : 16 bits
Compression mode                         : Lossy
Delay relative to video                  : -5ms
Stream size                              : 279 MiB (17%)
Title                                    : Ita Ac3 5.1
Language                                 : Italian
Default                                  : Yes
Forced                                   : No
DURATION                                 : 01:26:59.776000000
NUMBER_OF_FRAMES                         : 163118
NUMBER_OF_BYTES                          : 292307456
_STATISTICS_WRITING_APP                  : mkvmerge v26.0.0 ('In The Game') 64-bit
_STATISTICS_WRITING_DATE_UTC             : 2019-01-31 23:50:15
_STATISTICS_TAGS                         : BPS DURATION NUMBER_OF_FRAMES NUMBER_OF_BYTES

Audio #2
ID                                       : 3
Format                                   : AC-3
Format/Info                              : Audio Coding 3
Mode extension                           : CM (complete main)
Codec ID                                 : A_AC3
Duration                                 : 1h 27mn
Bit rate mode                            : Constant
Bit rate                                 : 384 Kbps
Channel(s)                               : 6 channels
Channel positions                        : Front: L C R, Side: L R, LFE
Sampling rate                            : 48.0 KHz
Bit depth                                : 16 bits
Compression mode                         : Lossy
Delay relative to video                  : -5ms
Stream size                              : 239 MiB (14%)
Title                                    : Eng Ac3 5.1
Language                                 : English
Default                                  : No
Forced                                   : No
DURATION                                 : 01:27:00.448000000
NUMBER_OF_FRAMES                         : 163139
NUMBER_OF_BYTES                          : 250581504
_STATISTICS_WRITING_APP                  : mkvmerge v26.0.0 ('In The Game') 64-bit
_STATISTICS_WRITING_DATE_UTC             : 2019-01-31 23:50:15
_STATISTICS_TAGS                         : BPS DURATION NUMBER_OF_FRAMES NUMBER_OF_BYTES

Menu
00:00:00.000                             : :00:00:00.000
00:07:40.916                             : :00:07:40.792
00:13:49.708                             : :00:13:49.625
00:20:31.416                             : :00:20:31.292
00:27:05.916                             : :00:27:05.792
00:32:57.916                             : :00:32:57.792
00:37:59.166                             : :00:37:59.083
00:45:01.083                             : :00:45:01.000
00:51:47.666                             : :00:51:47.583
00:59:59.458                             : :00:59:59.375
01:09:15.041                             : :01:09:14.958
01:16:59.541                             : :01:16:59.417



Similar Torrents
Type Name Size Added S L
h.264/x264 211 - Rapina in corso (2018).SD.H264.Ita.Eng.Ac3-5...
1.54 GB 2019-04-24 18:42:12 381 173
Divx/Xvid 211 - Rapina in corso (2018).XviD.Ita.Eng.Mp3-MIRC...
1.24 GB 2019-04-24 18:44:29 250 75

Loading...


Trackers:
udp://tracker.coppersurfer.tk:6969/announce

211 - Rapina in corso (2018).720p.H264.italian.english.Ac3-5.1.sub.ita.eng-MIRCrew
Files
211 (2018).720p.h264.ita.eng.sub.ita.eng-MIRCrew.eng.srt (72.21 kB)
211 (2018).720p.h264.ita.eng.sub.ita.eng-MIRCrew.ita.srt (70.87 kB)
211 (2018).720p.h264.ita.eng.sub.ita.eng-MIRCrew.mkv (1.64 GB)
211 (2018).720p.h264.ita.eng.sub.ita.eng-MIRCrew.srt (970.00 B)


Comments:
No comments still posted
Loading...
Powered by TT | Page Generated In 0.155804 secs.
| RSS Feed | Feed Info